Torrent’s details
Name NBA 2008 12 18 Suns@Blazers MPEG 960x544 Eng
Image
Description Video
ID                          : 1
Format                      : AVC
Format/Info                 : Advanced Video Codec
Format profile              : High@L4.1
Format settings             : CABAC / 4 Ref Frames
Format settings, CABAC      : Yes
Format settings, ReFrames   : 4 frames
Codec ID                    : avc1
Codec ID/Info               : Advanced Video Coding
Duration                    : 22 min 54 s
Bit rate                    : 3 000 kb/s
Maximum bit rate            : 6 621 kb/s
Width                       : 960 pixels
Height                      : 544 pixels
Display aspect ratio        : 16:9
Frame rate mode             : Constant
Frame rate                  : 59.940 (60000/1001) FPS
Color space                 : YUV
Chroma subsampling          : 4:2:0
Bit depth                   : 8 bits
Scan type                   : Progressive
Bits/(Pixel*Frame)          : 0.096
Stream size                 : 491 MiB (97%)
Writing library             : x264 core 59 r851M e11ef38
Encoding settings           : cabac=1 / ref=4 / deblock=1:-3:-3 / analyse=0x3:0x113 / me=umh / subme=6 / me-prepass=0 / brdo=1 / mixed_ref=1 / me_range=16 / chroma_me=1 / trellis=1 / 8x8dct=1 / cqm=0 / deadzone=21,11 / chroma_qp_offset=0 / threads=6 / nr=0 / decimate=1 / mbaff=0 / fgo=0 / bframes=3 / b_pyramid=1 / b_adapt=1 / b_bias=0 / direct=3 / wpredb=1 / bime=1 / keyint=250 / keyint_min=25 / scenecut=40(pre) / rc=2pass / bitrate=3000 / ratetol=1.0 / rceq='blurCplx^(1-qComp)' / qcomp=1.00 / qpmin=10 / qpmax=51 / qpstep=4 / cplxblur=20.0 / qblur=0.5 / ip_ratio=1.40 / pb_ratio=1.30 / aq=2:1.00
Encoded date                : UTC 2008-12-21 07:17:00
Tagged date                 : UTC 2008-12-22 00:11:07

Audio
ID                          : 2
Format                      : AAC
Format/Info                 : Advanced Audio Codec
Format profile              : HE-AAC / LC
Format settings             : Explicit
Codec ID                    : mp4a-40-2
Duration                    : 22 min 54 s
Bit rate mode               : Variable
Bit rate                    : 88.6 kb/s
Maximum bit rate            : 102 kb/s
Channel(s)                  : 2 channels
Channel positions           : Front: L R
Sampling rate               : 48.0 kHz / 24.0 kHz
Frame rate                  : 23.438 FPS (1024 SPF)
Compression mode            : Lossy
Stream size                 : 14.5 MiB (3%)
Encoded date                : UTC 2008-12-22 00:11:07
Tagged date                 : UTC 2008-12-22 00:11:07
Category NBA/WNBA
Rating N/A
Size 2.30 GB
Show/Hide Files
4 files