Torrent’s details
Name Champions League 2020 Locomotiv Moscow-Bayern Munich 27/10 SAT FEED 1080i
Image
Description Champions League 2020 Locomotiv Moscow-Bayern Munich 27/10 SAT FEED 1080i

Ripper: Reteron
Length: 119 mins
Source: 4:2:2 raw sat feed
Format: 1080i Matroska video

Notes:
Video is chroma 4:4:2, not playable on all players!
Recording is raw sat feed, no tv logo. It has only 1 stadium sound audio channel.

General
Unique ID                                : 300415469775665528657542620725591719675 (0xE201EA36DFC0955CD3E2799F5F4CBEFB)
Complete name                            : D:UCL20201027 L.Moskva-Bayern M√ľnchen sat feed 1080iLOKOMOTIV-BAYERN.SF.1080i.27.10.2020-Reteron.mkv
Format                                   : Matroska
Format version                           : Version 4
File size                                : 14.4 GiB
Duration                                 : 1 h 58 min
Overall bit rate mode                    : Variable
Overall bit rate                         : 17.4 Mb/s
Encoded date                             : UTC 2020-10-29 18:42:01
Writing application                      : mkvmerge v19.0.0 ('Brave Captain'wink.gif 64-bit
Writing library                          : libebml v1.3.5 + libmatroska v1.4.8

Video
ID                                       : 1
Format                                   : AVC
Format/Info                              : Advanced Video Codec
Format profile                           : High 4:2:2@L4
Format settings                          : CABAC / 3 Ref Frames
Format settings, CABAC                   : Yes
Format settings, Reference frames        : 3 frames
Format settings, GOP                     : M=3, N=15
Codec ID                                 : V_MPEG4/ISO/AVC
Duration                                 : 1 h 58 min
Bit rate mode                            : Variable
Bit rate                                 : 17.0 Mb/s
Width                                    : 1 920 pixels
Height                                   : 1 080 pixels
Display aspect ratio                     : 16:9
Frame rate mode                          : Variable
Frame rate                               : 50.000 FPS
Original frame rate                      : 25.000 FPS
Color space                              : YUV
Chroma subsampling                       : 4:2:2
Bit depth                                : 8 bits
Scan type                                : Interlaced
Scan type, store method                  : Separated fields
Scan order                               : Top Field First
Bits/(Pixel*Frame)                       : 0.164
Stream size                              : 14.1 GiB (98%)
Default                                  : Yes
Forced                                   : No
Color range                              : Limited
Color primaries                          : BT.709
Transfer characteristics                 : BT.709
Matrix coefficients                      : BT.709

Audio
ID                                       : 2
Format                                   : MPEG Audio
Format version                           : Version 1
Format profile                           : Layer 2
Codec ID                                 : A_MPEG/L2
Codec ID/Hint                            : MP2
Duration                                 : 1 h 58 min
Bit rate mode                            : Constant
Bit rate                                 : 384 kb/s
Channel(s)                               : 2 channels
Sampling rate                            : 48.0 kHz
Frame rate                               : 41.666 FPS (1152 SPF)
Compression mode                         : Lossy
Delay relative to video                  : 20 ms
Stream size                              : 326 MiB (2%)
Title                                    : (Stadium sound)
Language                                 : zxx
Default                                  : No
Forced                                   : No

Category European Soccer
Rating N/A
Size 14.42 GB
Show/Hide Files
1 file