Torrent’s details
Name NCAAF.2020.Week07.(3)Georgia.v.(2)Alabama.CBS.480p.H264.English-IMD
Image
Description ad breaks and halftime removed.

General
Format : Matroska
Format version : Version 2
File size : 1.94 GiB
Duration : 2 h 25 min
Overall bit rate mode : Variable
Overall bit rate : 1 911 kb/s
Writing application : Lavf54.63.104
Writing library : Lavf54.63.104

Video
ID : 1
Format : AVC
Format/Info : Advanced Video Codec
Format profile : Main@L3
Format settings : CABAC / 3 Ref Frames
Format settings, CABAC : Yes
Format settings, Reference frames : 3 frames
Codec ID : V_MPEG4/ISO/AVC
Duration : 2 h 25 min
Bit rate mode : Variable
Bit rate : 1 393 kb/s
Maximum bit rate : 9 800 kb/s
Width : 720 pixels
Height : 480 pixels
Display aspect ratio : 16:9
Original display aspect ratio : 16:9
Frame rate mode : Constant
Frame rate : 29.970 (30000/1001) FPS
Standard : NTSC
Color space : YUV
Chroma subsampling : 4:2:0
Bit depth : 8 bits
Scan type : Progressive
Bits/(Pixel*Frame) : 0.134
Stream size : 1.42 GiB (73%)
Default : No
Forced : No
Color range : Limited

Audio #1
ID : 2
Format : AC-3
Format/Info : Audio Coding 3
Commercial name : Dolby Digital
Codec ID : A_AC3
Duration : 2 h 25 min
Bit rate mode : Constant
Bit rate : 384 kb/s
Channel(s) : 6 channels
ChannelLayout_Original : L R C LFE Ls Rs
Sampling rate : 48.0 kHz
Frame rate : 31.250 FPS (1536 SPF)
Compression mode : Lossy
Delay relative to video : 32 ms
Stream size : 400 MiB (20%)
Language : English
Service kind : Complete Main
Default : Yes
Forced : No

Audio #2
ID : 3
Format : AC-3
Format/Info : Audio Coding 3
Commercial name : Dolby Digital
Codec ID : A_AC3
Duration : 2 h 25 min
Bit rate mode : Constant
Bit rate : 96.0 kb/s
Channel(s) : 1 channel
Channel layout : C
Sampling rate : 48.0 kHz
Frame rate : 31.250 FPS (1536 SPF)
Compression mode : Lossy
Delay relative to video : 9 ms
Stream size : 99.9 MiB (5%)
Language : Spanish
Service kind : Complete Main
Default : No
Forced : No
Category NCAA Basket/Football
Rating N/A
Size 1.94 GB
Show/Hide Files
1 file