Torrent’s details
Name 2022.04.26-Inside.The.NBA.1080p.WEB-DL.x264-shock | EN | 60fps |
Description Information

Event: 2022.04.26-Inside The NBA
NBATV WEB-DL Rip, Seeding on a 10GB seedbox
Language: English
Ripper: shock a.k.a. anjaklama
Video: x264, 1980x1080, 60 fps, ~5 MBps
Audio: AAC, stereo, 48 KHz, 96 kbps



Format                      : Matroska
Format version              : Version 4
File size                   : 1.32 GiB
Duration                    : 36 min 3 s
Overall bit rate mode       : Variable
Overall bit rate            : 5 239 kb/s
Encoded date                : UTC 2022-04-27 14:33:50
Writing application         : mkvmerge v67.0.0 ('Under Stars'wink.gif 64-bit
Writing library             : libebml v1.4.2 + libmatroska v1.6.4

Video
ID                          : 1
Format                      : AVC
Format/Info                 : Advanced Video Codec
Format profile              : Main@L4.2
Format settings             : CABAC / 4 Ref Frames
Format settings, CABAC      : Yes
Format settings, Reference  : 4 frames
Codec ID                    : V_MPEG4/ISO/AVC
Duration                    : 36 min 3 s
Bit rate mode               : Variable
Bit rate                    : 5 140 kb/s
Maximum bit rate            : 8 000 kb/s
Width                       : 1 920 pixels
Height                      : 1 080 pixels
Display aspect ratio        : 16:9
Frame rate mode             : Constant
Frame rate                  : 59.940 (59940/1000) FPS
Original frame rate         : 59.940 (60000/1001) FPS
Standard                    : Component
Color space                 : YUV
Chroma subsampling          : 4:2:0
Bit depth                   : 8 bits
Scan type                   : Progressive
Bits/(Pixel*Frame)          : 0.041
Stream size                 : 1.29 GiB (98%)
Default                     : Yes
Forced                      : No
Color range                 : Limited
Color primaries             : BT.709
Transfer characteristics    : BT.709
Matrix coefficients         : BT.709

Audio
ID                          : 2
Format                      : AAC LC SBR
Format/Info                 : Advanced Audio Codec Low Complexity with Spectral Band Replication
Commercial name             : HE-AAC
Format settings             : Implicit
Codec ID                    : A_AAC-2
Duration                    : 36 min 3 s
Bit rate                    : 96.0 kb/s
Channel(s)                  : 2 channels
Channel layout              : L R
Sampling rate               : 48.0 kHz
Frame rate                  : 23.438 FPS (2048 SPF)
Compression mode            : Lossy
Delay relative to video     : -39 ms
Stream size                 : 24.4 MiB (2%)
Language                    : English
Default                     : Yes
Forced                      : No



Screenshots:

Category NBA/WNBA
Rating N/A
Size 1.32 GB
Show/Hide Files
1 file