Torrent’s details
Name NBA.2003.WC.Rd1.Dallas Mavericks-Portland Trail Blazers.Game 7.ENGLISH.DVD
Description


Format                                   : MPEG-PS
File size                                : 4GB
Duration                                 : 1h 52min
Overall bit rate mode                    : Variable
Overall bit rate                         : 715 Mb/s
Frame rate                               : 29.970 FPS
Movie name                               : NBA ON ABC
Law rating                               : None

Video
ID                                       : 224 (0xE0)
Format                                   : MPEG Video
Format version                           : Version 2
Format profile                           : Main@Main
Format settings                          : BVOP
Format settings, BVOP                    : Yes
Format settings, Matrix                  : Default
Format settings, GOP                     : M=3, N=15
Format settings, picture structure       : Frame
Bit rate mode                            : Variable
Bit rate                                 : 700 Mb/s
Maximum bit rate                         : 9 334 kb/s
Width                                    : 720 pixels
Height                                   : 480 pixels
Display aspect ratio                     : 4:3
Frame rate                               : 29.970 (30000/1001) FPS
Standard                                 : NTSC
Color space                              : YUV
Chroma subsampling                       : 4:2:0
Bit depth                                : 8 bits
Scan type                                : Interlaced
Scan order                               : Top Field First
Compression mode                         : Lossy
Bits/(Pixel*Frame)                       : 67.618
Time code of first frame                 : 00:00:00:00
Time code source                         : Group of pictures header
GOP, Open/Closed                         : Open
GOP, Open/Closed of first frame          : Closed
Stream size                              : 1 003 MiB (98%)
Color primaries                          : BT.601 NTSC
Transfer characteristics                 : BT.601
Matrix coefficients                      : BT.601

Audio
ID                                       : 189 (0xBD)-128 (0x80)
Format                                   : AC-3
Format/Info                              : Audio Coding 3
Commercial name                          : Dolby Digital
Muxing mode                              : DVD-Video
Duration                                 : 11 s 476 ms
Bit rate mode                            : Constant
Bit rate                                 : 384 kb/s
Channel(s)                               : 2 channels
Channel layout                           : L R
Sampling rate                            : 48.0 kHz
Frame rate                               : 31.250 FPS (1536 SPF)
Compression mode                         : Lossy
Stream size                              : 538 KiB (0%)
Service kind                             : Complete Main

Text
ID                                       : 224 (0xE0)-CC3
Format                                   : EIA-608
Muxing mode, more info                   : Muxed in Video #1
Duration of the visible content          : 9 s 806 ms
Start time (commands)                    : 1 s 698 ms
Start time                               : 1 s 698 ms
End time                                 : 11 s 504 ms
Bit rate mode                            : Constant
Stream size                              : 0.00 Byte (0%)
Count of frames before first event       : 75
Type of the first event                  : PaintOn

Menu
Format                                   : DVD-Video

Category NBA/WNBA
Rating N/A
Size 3.99 GB
Show/Hide Files
9 files