Torrent’s details
Name UFC 125 Resolution 1 1 11 720p30fps EN
Image
Description UFC 125 Resolution 1 1 11 720p30fps EN

Video
ID                          : 1
Format                      : AVC
Format/Info                 : Advanced Video Codec
Format profile              : Main@L3.1
Format settings             : CABAC / 4 Ref Frames
Format settings, CABAC      : Yes
Format settings, ReFrames   : 4 frames
Codec ID                    : avc1
Codec ID/Info               : Advanced Video Coding
Duration                    : 3 h 35 min
Bit rate                    : 3 016 kb/s
Width                       : 1 280 pixels
Height                      : 720 pixels
Display aspect ratio        : 16:9
Original display aspect rat : 16:9
Frame rate mode             : Constant
Frame rate                  : 30.000 FPS
Color space                 : YUV
Chroma subsampling          : 4:2:0
Bit depth                   : 8 bits
Scan type                   : Progressive
Bits/(Pixel*Frame)          : 0.109
Stream size                 : 4.53 GiB (95%)
Writing library             : x264 core 155 r2893 b00bcaf    

Audio
ID                          : 2
Format                      : AAC LC
Format/Info                 : Advanced Audio Codec
Codec ID                    : mp4a-40-2
Duration                    : 3 h 35 min
Bit rate mode               : Variable
Bit rate                    : 160 kb/s
Channel(s)                  : 2 channels
Channel layout              : L R
Sampling rate               : 48.0 kHz
Frame rate                  : 46.875 FPS (1024 SPF)
Compression mode            : Lossy
Stream size                 : 247 MiB (5%)
Title                       : Stereo / Stereo
Default                     : Yes
Category MMA
Rating N/A
Size 4.79 GB
Show/Hide Files
1 file