Torrent’s details
Name Belgian.Pro.League.2020.10.17.Standard.Liege.vs.Club.Brugge.FRENCH.1080p.WEB.x264-VLF
Image
Description Belgian.Pro.League.2020.10.17.Standard.Liege.vs.Club.Brugge.FRENCH.1080p.WEB.x264-VLF

Release Details
Network: Eleven Pro League BE
Language: French
Notes: Full Match

Do not re-upload elsewhere without permission!
This includes other torrent sites, Usenet, direct download links, etc.

Media Info:
General
Complete name                            : BPL.2020.10.17.Standard.Liege.vs.Club.Brugge.ELEVENPROBE.1080p-FR.mp4
Format                                   : MPEG-4
Format profile                           : Base Media
Codec ID                                 : isom
File size                                : 4.94 GiB
Duration                                 : 1h 57mn
Overall bit rate                         : 6 011 Kbps
Writing application                      : Lavf57.71.100

Video
ID                                       : 1
Format                                   : AVC
Format/Info                              : Advanced Video Codec
Format profile                           : High@L4.2
Format settings, CABAC                   : Yes
Format settings, ReFrames                : 2 frames
Codec ID                                 : avc1
Codec ID/Info                            : Advanced Video Coding
Duration                                 : 1h 57mn
Bit rate                                 : 5 875 Kbps
Width                                    : 1 920 pixels
Height                                   : 1 080 pixels
Display aspect ratio                     : 16:9
Frame rate mode                          : Variable
Frame rate                               : 25.000 fps
Minimum frame rate                       : 1.984 fps
Maximum frame rate                       : 25.000 fps
Standard                                 : Component
Color space                              : YUV
Chroma subsampling                       : 4:2:0
Bit depth                                : 8 bits
Scan type                                : Progressive
Bits/(Pixel*Frame)                       : 0.113
Stream size                              : 4.82 GiB (98%)
Color primaries                          : BT.709
Transfer characteristics                 : BT.709
Matrix coefficients                      : BT.709

Audio
ID                                       : 2
Format                                   : AAC
Format/Info                              : Advanced Audio Codec
Format profile                           : LC
Codec ID                                 : 40
Duration                                 : 1h 57mn
Bit rate mode                            : Constant
Bit rate                                 : 132 Kbps
Channel(s)                               : 2 channels
Channel positions                        : Front: L R
Sampling rate                            : 48.0 KHz
Compression mode                         : Lossy
Stream size                              : 110 MiB (2%)


Category European Soccer
Rating N/A
Size 4.94 GB
Show/Hide Files
1 file