Torrent’s details
Name UCL.2019.02.12.R16.L1.AS.Roma.vs.FC.Porto.Full.Broadcast.1080p.WEBRip.x264-VLF | BT
Image
Description UCL.2019.02.12.R16.L1.AS.Roma.vs.FC.Porto.Full.Broadcast.1080p.WEBRip.x264-VLF | BT

Do not re-upload elsewhere without permission!
This includes other torrent sites, Usenet, direct download links, etc.




Network: BT
Language: English
Notes: Full Broadcast including Pre-Match


Coming Soon

General
Complete name                            : UCL.2019.02.12.R16.L1.Roma.vs.Porto.BT.Full.Broadcast.1080p-EN.mp4
Format                                   : MPEG-4
Format profile                           : Base Media
Codec ID                                 : isom (isom/iso2/avc1/mp41)
File size                                : 4.36 GiB
Duration                                 : 1h 56mn
Overall bit rate                         : 5 359 Kbps
Encoded date                             : UTC 1904-01-01 00:00:00
Tagged date                              : UTC 1904-01-01 00:00:00
Writing application                      : Lavf57.83.100

Video
ID                                       : 1
Format                                   : AVC
Format/Info                              : Advanced Video Codec
Format profile                           : High@L4.2
Format settings, CABAC                   : Yes
Format settings, ReFrames                : 4 frames
Codec ID                                 : avc1
Codec ID/Info                            : Advanced Video Coding
Duration                                 : 1h 56mn
Bit rate                                 : 5 214 Kbps
Width                                    : 1 920 pixels
Height                                   : 1 080 pixels
Display aspect ratio                     : 16:9
Frame rate mode                          : Variable
Frame rate                               : 49.926 fps
Minimum frame rate                       : 0.207 fps
Maximum frame rate                       : 250.000 fps
Color space                              : YUV
Chroma subsampling                       : 4:2:0
Bit depth                                : 8 bits
Scan type                                : Progressive
Bits/(Pixel*Frame)                       : 0.050
Stream size                              : 4.24 GiB (97%)
Encoded date                             : UTC 1904-01-01 00:00:00
Tagged date                              : UTC 1904-01-01 00:00:00

Audio
ID                                       : 2
Format                                   : AAC
Format/Info                              : Advanced Audio Codec
Format profile                           : LC
Codec ID                                 : 40
Duration                                 : 1h 56mn
Bit rate mode                            : Constant
Bit rate                                 : 132 Kbps
Channel(s)                               : 2 channels
Channel positions                        : Front: L R
Sampling rate                            : 48.0 KHz
Frame rate                               : 46.875 fps (1024 spf)
Compression mode                         : Lossy
Stream size                              : 110 MiB (2%)
Language                                 : English
Default                                  : Yes
Alternate group                          : 1
Encoded date                             : UTC 1904-01-01 00:00:00
Tagged date                              : UTC 1904-01-01 00:00:00


Category European Soccer
Rating N/A
Size 4.36 GB
Show/Hide Files
1 file