Torrent’s details
Name ESPN 30 for 30 Shorts S01E70 Revolution in the Ring 720p ESPN WEB-DL AAC2.0 H.264-KiMCHi
Image
Description
Quote:
This release is sourced from ESPN and is not transcoded, just remuxed from the direct stream.



General
Unique ID                                : 105647512412795410228321023197524959580 (0x4F7AF8846BBFB3C3F8E9781BB172A15C)
Complete name                            : ESPN.30.for.30.Shorts.S01E70.Revolution.in.the.Ring.720p.ESPN.WEB-DL.AAC2.0.H.264-KiMCHi.mkv
Format                                   : Matroska
Format version                           : Version 4
File size                                : 1.11 GiB
Duration                                 : 22 min 58 s
Overall bit rate mode                    : Variable
Overall bit rate                         : 6 931 kb/s
Movie name                               : ESPN 30 for 30 Shorts - Revolution in the Ring [S01E70] 720p ESPN WEB-DL - KiMCHi
Encoded date                             : UTC 2021-04-08 03:47:03
Writing application                      : mkvmerge v38.0.0 ('The Silent Type'wink.gif 64-bit
Writing library                          : libebml v1.3.9 + libmatroska v1.5.2

Video
ID                                       : 1
Format                                   : AVC
Format/Info                              : Advanced Video Codec
Format profile                           : High@L4
Format settings                          : CABAC / 3 Ref Frames
Format settings, CABAC                   : Yes
Format settings, Reference frames        : 3 frames
Codec ID                                 : V_MPEG4/ISO/AVC
Duration                                 : 22 min 58 s
Bit rate mode                            : Variable
Bit rate                                 : 6 801 kb/s
Maximum bit rate                         : 8 590 kb/s
Width                                    : 1 280 pixels
Height                                   : 720 pixels
Display aspect ratio                     : 16:9
Frame rate mode                          : Constant
Frame rate                               : 59.940 (60000/1001) FPS
Color space                              : YUV
Chroma subsampling                       : 4:2:0
Bit depth                                : 8 bits
Scan type                                : Progressive
Bits/(Pixel*Frame)                       : 0.123
Stream size                              : 1.09 GiB (98%)
Default                                  : Yes
Forced                                   : No

Audio
ID                                       : 2
Format                                   : AAC LC
Format/Info                              : Advanced Audio Codec Low Complexity
Codec ID                                 : A_AAC-2
Duration                                 : 22 min 58 s
Bit rate                                 : 125 kb/s
Channel(s)                               : 2 channels
Channel layout                           : L R
Sampling rate                            : 48.0 kHz
Frame rate                               : 46.875 FPS (1024 SPF)
Compression mode                         : Lossy
Delay relative to video                  : -12 ms
Stream size                              : 20.6 MiB (2%)
Language                                 : English
Default                                  : Yes
Forced                                   : No
Category Boxing
Rating N/A
Size 1.11 GB
Show/Hide Files
1 file