Torrent’s details
Name Formula 1 2018/05/13 Spanish Grand Prix Race 1080p HDTV 50fps ENG | SKY Sports F1 HD
Description COMPLETE SKY Sports F1 Race Day Coverage (approx. 4 hrs 57 min)

Formula.1.2018x05.Spain.Race.SkyF1HD.1080p50 (smcgill1969)

01.Pre-Race.Buildup.mp4 -- 4.15 GB -- 1 h 35 min
02.Race.Session.mp4 -- 5.21 GB -- 1 h 58 min
03.Post-Race.Analysis.mp4 -- 3.70 GB -- 1 h 24 min


___________________________


General
Complete name : 02.Race.Session.mp4
Format : MPEG-4
Format profile : QuickTime
Codec ID : qt 2005.03 (qt )
File size : 5.22 GiB
Duration : 1 h 58 min
Overall bit rate mode : Variable
Overall bit rate : 6 275 kb/s
Encoded date : UTC 2018-05-13 14:52:19
Tagged date : UTC 2018-05-13 15:07:26
Writing library : Apple QuickTime

Video
ID : 1
Format : AVC
Format/Info : Advanced Video Codec
Format profile : High@L4.2
Format settings, CABAC : Yes
Format settings, ReFrames : 2 frames
Format settings, GOP : M=3, N=24
Codec ID : avc1
Codec ID/Info : Advanced Video Coding
Duration : 1 h 58 min
Bit rate mode : Variable
Bit rate : 6 010 kb/s
Maximum bit rate : 12.4 Mb/s
Width : 1 920 pixels
Height : 1 080 pixels
Original height : 1 088 pixels
Display aspect ratio : 16:9
Original display aspect ratio : 16:9
Frame rate mode : Variable
Frame rate : 50.000 FPS
Minimum frame rate : 20.358 FPS
Maximum frame rate : 50.000 FPS
Color space : YUV
Chroma subsampling : 4:2:0
Bit depth : 8 bits
Scan type : Progressive
Bits/(Pixel*Frame) : 0.058
Stream size : 4.99 GiB (96%)
Language : English
Encoded date : UTC 2018-05-13 14:52:19
Tagged date : UTC 2018-05-13 15:07:26

Audio
ID : 2
Format : AAC
Format/Info : Advanced Audio Codec
Format profile : LC
Codec ID : 40
Duration : 1 h 58 min
Bit rate mode : Constant
Bit rate : 256 kb/s
Channel(s) : 2 channels
Channel positions : Front: L R
Sampling rate : 48.0 kHz
Frame rate : 46.875 FPS (1024 spf)
Compression mode : Lossy
Stream size : 216 MiB (4%)
Language : English
Encoded date : UTC 2018-05-13 14:52:19
Tagged date : UTC 2018-05-13 15:07:26


Respect to Mr. McGill! cool2.gif
Category Formula1
Rating
Size 13.08 GB
Show/Hide Files
3 files