Torrent’s details
Name NBA.1998.02.01 Chicago Bulls vs L.A Lakers
Image
Description Information

Event: Kobe vs. Jordan, young Lakers vs. aging Bulls

Seeding on a 10GB seedbox

Language: English
Ripper: Credit goes to original ripper
Video: Xvid 720x480 29.97fps [V: mpeg4 simple profile, yuv420p, 720x480
Audio: MP3 48000Hz stereo 128kbps [A: English [eng] (mp3, 48000 Hz, stereo, 128 kb/s)



Format : Matroska
Format version                 : Version 4
File size                      : 1.02 GiB
Duration                       : 1 h 49 min
Overall bit rate               : 1 333 kb/s
Encoded date                   : UTC 2022-05-01 00:59:09
Writing application            : mkvmerge v66.0.0 ('Josie'wink.gif 64-bit
Writing library                : libebml v1.4.2 + libmatroska v1.6.4

Video
ID                             : 1
Format                         : MPEG-4 Visual
Format profile                 : Simple@L3
Format settings, BVOP          : No
Format settings, QPel          : No
Format settings, GMC           : No warppoints
Format settings, Matrix        : Default (H.263)
Codec ID                       : V_MS/VFW/FOURCC / XVID
Codec ID/Hint                  : XviD
Duration                       : 1 h 49 min
Bit rate                       : 1 202 kb/s
Width                          : 720 pixels
Height                         : 480 pixels
Display aspect ratio           : 3:2
Frame rate mode                : Constant
Frame rate                     : 29.970 (30000/1001) FPS
Standard                       : NTSC
Color space                    : YUV
Chroma subsampling             : 4:2:0
Bit depth                      : 8 bits
Scan type                      : Progressive
Compression mode               : Lossy
Bits/(Pixel*Frame)             : 0.116
Stream size                    : 944 MiB (90%)
Writing library                : XviD 1.1.0 Beta2 (UTC 2005-04-04)
Default                        : Yes
Forced                         : No

Audio
ID                             : 2
Format                         : MPEG Audio
Format version                 : Version 1
Format profile                 : Layer 3
Format settings                : Joint stereo / MS Stereo
Codec ID                       : A_MPEG/L3
Codec ID/Hint                  : MP3
Duration                       : 1 h 49 min
Bit rate mode                  : Constant
Bit rate                       : 128 kb/s
Channel(s)                     : 2 channels
Sampling rate                  : 48.0 kHz
Frame rate                     : 41.665 FPS (1152 SPF)
Compression mode               : Lossy
Stream size                    : 101 MiB (10%)
Writing library                : LAME3.96.1
Language                       : English
Default                        : Yes
Forced                         : No
Category NBA/WNBA
Rating N/A
Size 1.02 GB
Show/Hide Files
1 file