Torrent’s details
Name Inside the NBA 2022/04/10 | 1080p 60fps TNT
Image
Description General
Unique ID : 302133938939822625620604891418574654493 (0xE34CE1491EF58A5699E6CC82ACA30C1D)
Complete name : X:Sport VaultNBAInside The NBA TNTInside the NBA 2022-04-10 1080p H.264-MB.mkv
Format : Matroska
Format version : Version 4
File size : 1.35 GiB
Duration : 36 min 57 s
Overall bit rate : 5 210 kb/s
Encoded date : UTC 2022-04-11 14:45:55
Writing application : mkvmerge v59.0.0 ('Shining Star'wink.gif 64-bit
Writing library : libebml v1.4.2 + libmatroska v1.6.4

Video
ID : 1
Format : AVC
Format/Info : Advanced Video Codec
Format profile : Main@L4.2
Format settings : CABAC / 3 Ref Frames
Format settings, CABAC : Yes
Format settings, Reference frames : 3 frames
Codec ID : V_MPEG4/ISO/AVC
Duration : 36 min 57 s
Bit rate : 5 078 kb/s
Nominal bit rate : 5 502 kb/s
Width : 1 920 pixels
Height : 1 080 pixels
Display aspect ratio : 16:9
Frame rate mode : Constant
Frame rate : 60.000 FPS
Color space : YUV
Chroma subsampling : 4:2:0
Bit depth : 8 bits
Scan type : Progressive
Bits/(Pixel*Frame) : 0.041
Stream size : 1.31 GiB (97%)
Writing library : x264 core 160 r3000
Encoding settings : cabac=1 / ref=3 / deblock=1:0:0 / analyse=0x1:0x111 / me=hex / subme=4 / psy=1 / psy_rd=1.00:0.00 / mixed_ref=0 / me_range=16 / chroma_me=1 / trellis=1 / 8x8dct=0 / cqm=0 / deadzone=21,11 / fast_pskip=1 / chroma_qp_offset=0 / threads=16 / lookahead_threads=4 / sliced_threads=0 / nr=0 / decimate=1 / interlaced=0 / bluray_compat=0 / constrained_intra=0 / bframes=0 / weightp=1 / keyint=300 / keyint_min=30 / scenecut=0 / intra_refresh=0 / rc_lookahead=20 / rc=abr / mbtree=1 / bitrate=5502 / ratetol=1.0 / qcomp=0.60 / qpmin=0 / qpmax=69 / qpstep=4 / vbv_maxrate=18599 / vbv_bufsize=9375 / nal_hrd=none / filler=0 / ip_ratio=1.40 / aq=1:1.00
Default : Yes
Forced : No
Color range : Limited
Color primaries : BT.709
Transfer characteristics : BT.709
Matrix coefficients : BT.709

Audio
ID : 2
Format : AAC LC
Format/Info : Advanced Audio Codec Low Complexity
Codec ID : A_AAC-2
Duration : 36 min 57 s
Bit rate : 128 kb/s
Channel(s) : 2 channels
Channel layout : L R
Sampling rate : 44.1 kHz
Frame rate : 43.066 FPS (1024 SPF)
Compression mode : Lossy
Stream size : 33.8 MiB (2%)
Language : English
Default : Yes
Forced : No
Category NBA/WNBA
Rating
Size 1.35 GB
Show/Hide Files
1 file