Torrent’s details
Name EFL 2018-02-11 Aston Villa vs Birmingham 720p HDTV DD2.0 50fps x264-wAm
Description General
Unique ID                   : 289965087366031561749214987752520466113 (0xDA253E94D53A2C5EA181E4AE573EBEC1)
Complete name               : E:500GBDownloadsEFL 2018-02-11 Aston Villa vs Birmingham 720p HDTV DD2.0 50fps x264-wAm.mkv
Format                      : Matroska
Format version              : Version 4 / Version 2
File size                   : 4.87 GiB
Duration                    : 1 h 53 min
Overall bit rate            : 6 168 kb/s
Writing application         : Lavf57.71.100
Writing library             : Lavf57.71.100
ErrorDetectionType          : Per level 1

Video
ID                          : 1
Format                      : AVC
Format/Info                 : Advanced Video Codec
Format profile              : High@L4.1
Format settings             : CABAC / 4 Ref Frames
Format settings, CABAC      : Yes
Format settings, ReFrames   : 4 frames
Codec ID                    : V_MPEG4/ISO/AVC
Duration                    : 1 h 53 min
Bit rate                    : 5 853 kb/s
Width                       : 1 280 pixels
Height                      : 720 pixels
Display aspect ratio        : 16:9
Frame rate mode             : Constant
Frame rate                  : 50.000 FPS
Color space                 : YUV
Chroma subsampling          : 4:2:0
Bit depth                   : 8 bits
Scan type                   : Progressive
Bits/(Pixel*Frame)          : 0.127
Stream size                 : 4.62 GiB (95%)
Default                     : Yes
Forced                      : No

Audio
ID                          : 2
Format                      : AC-3
Format/Info                 : Audio Coding 3
Codec ID                    : A_AC3
Duration                    : 1 h 53 min
Bit rate mode               : Constant
Bit rate                    : 192 kb/s
Channel(s)                  : 2 channels
Channel positions           : Front: L R
Sampling rate               : 48.0 kHz
Frame rate                  : 31.250 FPS (1536 SPF)
Bit depth                   : 16 bits
Compression mode            : Lossy
Delay relative to video     : 1 s 624 ms
Stream size                 : 155 MiB (3%)
Service kind                : Complete Main
Default                     : Yes
Forced                      : No

Category European Soccer
Rating
Size 4.87 GB
Show/Hide Files
1 file