Torrent’s details
Name UFC 146 Dos Santos vs Mir 5 27 12 720p 30fps EN
Image
Description UFC 146 Dos Santos vs Mir 5 27 12 720p 30fps EN

General
Complete name                            : UFC 146 Dos Santos vs Mir 5 27 12 720p 30fps EN.mp4
Format                                   : MPEG-4
Format profile                           : Base Media / Version 2
Codec ID                                 : mp42 (isom/iso2/avc1/mp41)
File size                                : 4.27 GiB
Duration                                 : 3 h 15 min
Overall bit rate mode                    : Variable
Overall bit rate                         : 3 129 kb/s

Video
ID                                       : 1
Format                                   : AVC
Format/Info                              : Advanced Video Codec
Format profile                           : Main@L3.1
Format settings                          : CABAC / 4 Ref Frames
Format settings, CABAC                   : Yes
Format settings, RefFrames               : 4 frames
Codec ID                                 : avc1
Codec ID/Info                            : Advanced Video Coding
Duration                                 : 3 h 15 min
Bit rate                                 : 2 959 kb/s
Width                                    : 1 280 pixels
Height                                   : 720 pixels
Display aspect ratio                     : 16:9
Original display aspect ratio            : 16:9
Frame rate mode                          : Constant
Frame rate                               : 30.000 FPS
Color space                              : YUV
Chroma subsampling                       : 4:2:0
Bit depth                                : 8 bits
Scan type                                : Progressive
Bits/(Pixel*Frame)                       : 0.107
Stream size                              : 4.04 GiB (95%)
Writing library                          : x264 core 155 r2901 7d0ff22

Audio
ID                                       : 2
Format                                   : AAC
Format/Info                              : Advanced Audio Codec
Format profile                           : LC
Codec ID                                 : mp4a-40-2
Duration                                 : 3 h 15 min
Bit rate mode                            : Variable
Bit rate                                 : 160 kb/s
Channel(s)                               : 2 channels
Channel positions                        : Front: L R
Sampling rate                            : 48.0 kHz
Frame rate                               : 46.875 FPS (1024 SPF)
Compression mode                         : Lossy
Stream size                              : 224 MiB (5%)
Title                                    : Stereo / Stereo
Default                                  : Yes
Category MMA
Rating N/A
Size 4.27 GB
Show/Hide Files
1 file