Torrent’s details
Name La.Liga.Real.Sociedad.vs.FC.Barcelona.21.04.2022.2160p.UHDTV.DD2.0.HLG.H.265-playTV
Description General
Unique ID                                : 55494128285710339602600837205608985554 (0x29BFC7C461F62DA5345447758D3173D2)
Complete name                            : La.Liga.Real.Sociedad.vs.FC.Barcelona.21.04.2022.2160p.UHDTV.DD2.0.HLG.H.265-playTV.mkv
Format                                   : Matroska
Format version                           : Version 4
File size                                : 22.2 GiB
Duration                                 : 2 h 8 min
Overall bit rate                         : 24.8 Mb/s
Encoded date                             : UTC 2022-04-22 12:54:11
Writing application                      : mkvmerge v53.0.0 ('Fool's Gold'wink.gif 64-bit
Writing library                          : libebml v1.4.1 + libmatroska v1.6.2

Video
ID                                       : 1
Format                                   : HEVC
Format/Info                              : High Efficiency Video Coding
Format profile                           : Main 10@L5.1@High
Codec ID                                 : V_MPEGH/ISO/HEVC
Duration                                 : 2 h 8 min
Bit rate                                 : 24.6 Mb/s
Width                                    : 3 840 pixels
Height                                   : 2 160 pixels
Display aspect ratio                     : 16:9
Frame rate mode                          : Constant
Frame rate                               : 50.000 FPS
Standard                                 : Component
Color space                              : YUV
Chroma subsampling                       : 4:2:0 (Type 0)
Bit depth                                : 10 bits
Bits/(Pixel*Frame)                       : 0.059
Stream size                              : 22.0 GiB (99%)
Default                                  : Yes
Forced                                   : No
Color range                              : Limited
Color primaries                          : BT.2020
Transfer characteristics                 : HLG
Matrix coefficients                      : BT.2020 non-constant

Audio
ID                                       : 2
Format                                   : AC-3
Format/Info                              : Audio Coding 3
Commercial name                          : Dolby Digital
Codec ID                                 : A_AC3
Duration                                 : 2 h 8 min
Bit rate mode                            : Constant
Bit rate                                 : 224 kb/s
Channel(s)                               : 2 channels
Channel layout                           : L R
Sampling rate                            : 48.0 kHz
Frame rate                               : 31.250 FPS (1536 SPF)
Compression mode                         : Lossy
Delay relative to video                  : -900 ms
Stream size                              : 206 MiB (1%)
Language                                 : Romanian
Service kind                             : Complete Main
Default                                  : Yes
Forced                                   : No



La.Liga.Real.Sociedad.vs.FC.Barcelona.21.04.2022
2160p.UHDTV.DD2.0.HLG.H.265-playTV


* RELEASE iNFO *

RELEASE NAME.........: La.Liga.Real.Sociedad.vs.FC.Barcelona.21.04.2022.2160p.UHDTV.DD2.0.HLG.H.265-playTV
RUNTIME..............: 2 h 8 min
VIDEO CODEC..........: HEVC
FRAMERATE ...........: 50.000 FPS
AVG BITRATE .........: 24.6 Mbps
RELEASE SIZE.........: 22.2 GiB
RESOLUTION ..........: 3840x2160 - 10-bit / HLG
ASPECT RATIO ........: 16:9
AUDIO ...............: Romanian @ Dolby Digital Audio - 2 channels / 224 Kbps
SOURCE ..............: DIGI 4K

* SCREENSHOTS *
  ----------



* NOTES *
-----------

 Enjoy ! grin.gif
Category La Liga
Rating N/A
Size 22.24 GB
Show/Hide Files
1 file