Torrent’s details
Name Bundesliga.2018.11.10.Augsburg.vs.Hoffenheim.720p.WEBRip.x264-VLF | FS
Image
Description Bundesliga.2018.11.10.Augsburg.vs.Hoffenheim.720p.WEBRip.x264-VLF | FS

Do not re-upload elsewhere without permission!
This includes other torrent sites, Usenet, or even direct download links.




Network: FS2
Language: English
Notes: Full Match


Coming Soon

General
Complete name                            : BL.2018.11.10.Augsburg.vs.Hoffenheim.FS.720p-EN.mp4
Format                                   : MPEG-4
Format profile                           : Base Media
Codec ID                                 : isom (isom/iso2/avc1/mp41)
File size                                : 2.95 GiB
Duration                                 : 1h 41mn
Overall bit rate mode                    : Variable
Overall bit rate                         : 4 144 Kbps
Law rating                               : None
Encoded date                             : UTC 1904-01-01 00:00:00
Tagged date                              : UTC 1904-01-01 00:00:00
Writing application                      : Lavf57.83.100

Video
ID                                       : 1
Format                                   : AVC
Format/Info                              : Advanced Video Codec
Format profile                           : High@L3.2
Format settings, CABAC                   : Yes
Format settings, ReFrames                : 4 frames
Format settings, GOP                     : M=4, N=120
Codec ID                                 : avc1
Codec ID/Info                            : Advanced Video Coding
Duration                                 : 1h 41mn
Bit rate mode                            : Constant
Bit rate                                 : 4 000 Kbps
Width                                    : 1 280 pixels
Height                                   : 720 pixels
Display aspect ratio                     : 16:9
Frame rate mode                          : Variable
Frame rate                               : 59.940 (59940/1000) fps
Minimum frame rate                       : 2.067 fps
Maximum frame rate                       : 59.960 fps
Original frame rate                      : 59.940 (60000/1001) fps
Color space                              : YUV
Chroma subsampling                       : 4:2:0
Bit depth                                : 8 bits
Scan type                                : Progressive
Bits/(Pixel*Frame)                       : 0.072
Stream size                              : 2.85 GiB (97%)
Encoded date                             : UTC 1904-01-01 00:00:00
Tagged date                              : UTC 1904-01-01 00:00:00

Audio
ID                                       : 2
Format                                   : AAC
Format/Info                              : Advanced Audio Codec
Format profile                           : LC
Codec ID                                 : 40
Duration                                 : 1h 41mn
Bit rate mode                            : Variable
Bit rate                                 : 126 Kbps
Maximum bit rate                         : 129 Kbps
Channel(s)                               : 2 channels
Channel positions                        : Front: L R
Sampling rate                            : 44.1 KHz
Frame rate                               : 43.066 fps (1024 spf)
Compression mode                         : Lossy
Stream size                              : 91.7 MiB (3%)
Default                                  : Yes
Alternate group                          : 1
Encoded date                             : UTC 1904-01-01 00:00:00
Tagged date                              : UTC 1904-01-01 00:00:00

Text #1
ID                                       : 1-CC1
Format                                   : EIA-608
Muxing mode                              : SCTE 128 / DTVCC Transport
Muxing mode, more info                   : Muxed in Video #1
Duration                                 : 1h 41mn
Bit rate mode                            : Constant
Stream size                              : 0.00 Byte (0%)
Encoded stream size                      : 0.00 Byte (0%)

Text #2
ID                                       : 1-1
Format                                   : EIA-708
Muxing mode                              : SCTE 128 / DTVCC Transport
Muxing mode, more info                   : Muxed in Video #1
Duration                                 : 1h 41mn
Bit rate mode                            : Constant
Stream size                              : 0.00 Byte (0%)
Encoded stream size                      : 0.00 Byte (0%)


Category European Soccer
Rating N/A
Size 2.95 GB
Show/Hide Files
1 file