Torrent’s details
Name Cricket.Womens.World.T20.2018.M03.Windies.vs.Bangladesh.Full.Match.720p.WEBRip.x264-VLF | SKY
Image
Description Cricket.Womens.World.T20.2018.M03.Windies.vs.Bangladesh.Full.Match.720p.WEBRip.x264-VLF | SKY

Do not re-upload elsewhere without permission!
This includes other torrent sites, Usenet, or even direct download links.




Network: Sky Sports
Language: English
Notes: Full Match


Coming Soon

General
Complete name                            : Cricket.WWT20.2018.M03.Windies.vs.Bangladesh.SKY.Full.Match.720p-EN.mp4
Format                                   : MPEG-4
Format profile                           : Base Media
Codec ID                                 : isom (isom/iso2/avc1/mp41)
File size                                : 2.45 GiB
Duration                                 : 3h 17mn
Overall bit rate mode                    : Variable
Overall bit rate                         : 1 775 Kbps
Encoded date                             : UTC 1904-01-01 00:00:00
Tagged date                              : UTC 1904-01-01 00:00:00
Writing application                      : Lavf57.83.100

Video
ID                                       : 1
Format                                   : AVC
Format/Info                              : Advanced Video Codec
Format profile                           : High@L3.1
Format settings, CABAC                   : Yes
Format settings, ReFrames                : 1 frame
Format settings, GOP                     : M=1, N=30
Codec ID                                 : avc1
Codec ID/Info                            : Advanced Video Coding
Duration                                 : 3h 17mn
Bit rate                                 : 1 608 Kbps
Width                                    : 1 280 pixels
Height                                   : 720 pixels
Display aspect ratio                     : 16:9
Frame rate mode                          : Variable
Frame rate                               : 30.000 fps
Minimum frame rate                       : 21.547 fps
Maximum frame rate                       : 56.926 fps
Color space                              : YUV
Chroma subsampling                       : 4:2:0
Bit depth                                : 8 bits
Scan type                                : Progressive
Bits/(Pixel*Frame)                       : 0.058
Stream size                              : 2.21 GiB (91%)
Encoded date                             : UTC 1904-01-01 00:00:00
Tagged date                              : UTC 1904-01-01 00:00:00

Audio
ID                                       : 2
Format                                   : AAC
Format/Info                              : Advanced Audio Codec
Format profile                           : LC
Codec ID                                 : 40
Duration                                 : 3h 17mn
Bit rate mode                            : Variable
Bit rate                                 : 159 Kbps
Maximum bit rate                         : 170 Kbps
Channel(s)                               : 2 channels
Channel positions                        : Front: L R
Sampling rate                            : 48.0 KHz
Frame rate                               : 46.875 fps (1024 spf)
Compression mode                         : Lossy
Stream size                              : 225 MiB (9%)
Default                                  : Yes
Alternate group                          : 1
Encoded date                             : UTC 1904-01-01 00:00:00
Tagged date                              : UTC 1904-01-01 00:00:00


Category Cricket
Rating N/A
Size 2.45 GB
Show/Hide Files
1 file