Torrent’s details
Name The.Point.2022.04.07.NHL.News.720p.WEB-DL.AAC2.0.H.264-StatiQ
Description General
Unique ID : 321769717252205353760376834452397212507 (0xF21297E6C9DDBDCF9D6D678E92C3C35B)
Complete name : The.Point.2022.04.07.NHL.News.720p.WEB-DL.H264.AAC20-StatiQ.mkv
Format : Matroska
Format version : Version 4
File size : 2.17 GiB
Duration : 44 min 30 s
Overall bit rate : 6 981 kb/s
Movie name : NHL News
Encoded date : UTC 2022-04-10 17:25:35
Writing application : mkvmerge v60.0.0 ('Are We Copies?'wink.gif 64-bit
Writing library : libebml v1.4.2 + libmatroska v1.6.3

Video
ID : 1
Format : AVC
Format/Info : Advanced Video Codec
Format profile : High@L4
Format settings : CABAC / 4 Ref Frames
Format settings, CABAC : Yes
Format settings, Reference frames : 4 frames
Codec ID : V_MPEG4/ISO/AVC
Duration : 44 min 28 s
Bit rate mode : Constant
Bit rate : 6 872 kb/s
Width : 1 280 pixels
Height : 720 pixels
Display aspect ratio : 16:9
Frame rate mode : Constant
Frame rate : 59.940 (59940/1000) FPS
Original frame rate : 59.940 (60000/1001) FPS
Color space : YUV
Chroma subsampling : 4:2:0
Bit depth : 8 bits
Scan type : Progressive
Bits/(Pixel*Frame) : 0.124
Stream size : 2.13 GiB (98%)
Default : Yes
Forced : No

Audio
ID : 2
Format : AAC LC
Format/Info : Advanced Audio Codec Low Complexity
Codec ID : A_AAC-2
Duration : 44 min 30 s
Bit rate : 125 kb/s
Channel(s) : 2 channels
Channel layout : L R
Sampling rate : 48.0 kHz
Frame rate : 46.875 FPS (1024 SPF)
Compression mode : Lossy
Delay relative to video : -1 s 857 ms
Stream size : 39.9 MiB (2%)
Default : Yes
Forced : No

Menu
00:00:00.000 : Chapter 1
00:12:18.970 : Chapter 2
00:21:39.600 : Chapter 3
00:30:32.929 : Chapter 4
00:41:35.550 : Chapter 5
Category NHL
Rating N/A
Size 2.17 GB
Show/Hide Files
1 file