Torrent’s details
Name NBA 2006 03 23 Warriors@Mavericks DVD Eng
Image
Description Video
ID                          : 224 (0xE0)
Format                      : MPEG Video
Format version              : Version 2
Format profile              : Main@Main
Format settings             : BVOP
Format settings, BVOP       : Yes
Format settings, Matrix     : Default
Format settings, GOP        : M=2, N=12
Format settings, picture st : Frame
Duration                    : 40 min 33 s
Bit rate mode               : Variable
Bit rate                    : 3 204 kb/s
Maximum bit rate            : 5 010 kb/s
Width                       : 352 pixels
Height                      : 576 pixels
Display aspect ratio        : 4:3
Frame rate                  : 25.000 FPS
Standard                    : PAL
Color space                 : YUV
Chroma subsampling          : 4:2:0
Bit depth                   : 8 bits
Scan type                   : Interlaced
Scan order                  : Top Field First
Compression mode            : Lossy
Bits/(Pixel*Frame)          : 0.632
Time code of first frame    : 00:00:00:00
Time code source            : Group of pictures header
GOP, Open/Closed            : Closed
Stream size                 : 929 MiB (91%)

Audio
ID                          : 189 (0xBD)-128 (0x80)
Format                      : AC-3
Format/Info                 : Audio Coding 3
Muxing mode                 : DVD-Video
Duration                    : 40 min 33 s
Bit rate mode               : Constant
Bit rate                    : 256 kb/s
Channel(s)                  : 2 channels
Channel positions           : Front: L R
Sampling rate               : 48.0 kHz
Frame rate                  : 31.250 FPS (1536 SPF)
Bit depth                   : 16 bits
Compression mode            : Lossy
Delay relative to video     : -6 ms
Stream size                 : 74.3 MiB (7%)
Service kind                : Complete Main
Category NBA/WNBA
Rating N/A
Size 3.99 GB
Show/Hide Files
9 files