Torrent’s details
Name FIFA World Cup 2022 Opening Ceremony English 4K UHD
Description Language: English
Feed: Astro Supersport UHD

Format                         : MPEG-4
Format profile                 : Base Media / Version 2
Codec ID                       : mp42
File size                      : 3.94 GiB
Duration                       : 27mn 24s
Overall bit rate               : 20.6 Mbps
Codirector                     : codirector
Production studio              : studio
ContentType                    : Unknown Type
Encoded date                   : UTC 2022-11-20 15:30:36
Tagged date                    : UTC 2022-11-20 15:30:36

Video
ID                             : 1
Format                         : AVC
Format/Info                    : Advanced Video Codec
Format profile                 : High@L5.2
Format settings, CABAC         : Yes
Format settings, ReFrames      : 3 frames
Format settings, GOP           : M=1, N=30
Muxing mode                    : Container profile=High@5.1
Codec ID                       : avc1
Codec ID/Info                  : Advanced Video Coding
Duration                       : 27mn 24s
Bit rate                       : 20.4 Mbps
Width                          : 3 840 pixels
Height                         : 2 160 pixels
Display aspect ratio           : 16:9
Frame rate mode                : Constant
Frame rate                     : 50.000 fps
Color space                    : YUV
Chroma subsampling             : 4:2:0
Bit depth                      : 8 bits
Scan type                      : Progressive
Bits/(Pixel*Frame)             : 0.049
Stream size                    : 3.90 GiB (99%)
Language                       : English
Color range                    : Limited
Color primaries                : BT.709
Transfer characteristics       : BT.709
Matrix coefficients            : BT.709

Audio
ID                             : 2
Format                         : AAC
Format/Info                    : Advanced Audio Codec
Format profile                 : LC
Codec ID                       : 40
Duration                       : 27mn 24s
Bit rate mode                  : Constant
Bit rate                       : 192 Kbps
Channel(s)                     : 2 channels
Channel positions              : Front: L R
Sampling rate                  : 44.1 KHz
Compression mode               : Lossy
Stream size                    : 37.6 MiB (1%)
Title                          : Stereo
Language                       : English
Category International Soccer
Rating
Size 3.94 GB
Show/Hide Files
1 file