Torrent’s details
Name World Athletics Indoor Tour 2020 Karlsruhe 31/01/2020 1080iRU25fps | Eurosport 1 HD
Image
Description https://www.worldathletics.org/competitions/world-athletics-indoor-tour/indoor-meeting-karlsruhe-6752/timetable/byday
Format                                   : MPEG-TS
File size                                : 6.52 GiB
Duration                                 : 1 h 35 min
Overall bit rate mode                    : Variable
Overall bit rate                         : 9 739 kb/s
Video ID                                       : 1050 (0x41A)
Menu ID                                  : 122 (0x7A)
Format                                   : AVC
Format/Info                              : Advanced Video Codec
Format profile                           : High@L4
Format settings, CABAC                   : Yes
Format settings, RefFrames               : 4 frames
Format settings, GOP                     : M=4, N=24
Codec ID                                 : 27
Duration                                 : 1 h 35 min
Bit rate                                 : 9 064 kb/s
Width                                    : 1 920 pixels
Height                                   : 1 080 pixels
Display aspect ratio                     : 16:9
Frame rate                               : 25.000 FPS
Standard                                 : Component
Color space                              : YUV
Chroma subsampling                       : 4:2:0
Bit depth                                : 8 bits
Scan type                                : Interlaced
Scan type, store method                  : Separated fields
Scan order                               : Top Field First
Bits/(Pixel*Frame)                       : 0.175
Stream size                              : 6.07 GiB (93%)
Color range                              : Limited
Color primaries                          : BT.709
Transfer characteristics                 : BT.709
Matrix coefficients                      : BT.709
Audio ID                                       : 1051 (0x41B)
Menu ID                                  : 122 (0x7A)
Format                                   : MPEG Audio
Format version                           : Version 1
Format profile                           : Layer 2
Codec ID                                 : 3
Duration                                 : 1 h 35 min
Bit rate mode                            : Constant
Bit rate                                 : 192 kb/s
Channel(s)                               : 2 channels
Sampling rate                            : 48.0 kHz
Compression mode                         : Lossy
Delay relative to video                  : -40 ms
Stream size                              : 132 MiB (2%)
Language                                 : Russian
Category Athletics
Rating N/A
Size 6.52 GB
Show/Hide Files
1 file