Torrent’s details
Name The.Champions.Manchester.City.Peps.Pursuit.of.Perfection.Documentary.720p.WEBRip.x264-VLF (2018-05-13) | NBCSN
Description The.Champions.Manchester.City.Peps.Pursuit.of.Perfection.Documentary.720p.WEBRip.x264-VLF (2018-05-13) | NBCSN
Come chat with fellow football (soccer) fans in the Soccer Forum!




Network: NBCSN
Language: English
Notes: Narrated by Roger Bennett, we take a look at City’s record-breaking season as Pep Guardiola‘s men have already smashed the PL records for most points, wins and goals scored in a single season. Originally aired Sunday, 13 May 2018.

Please do not re-upload elsewhere without my permission!






General
Complete name                            : NBC.2018.05.13.The.Champions.Manchester.City.DOCU.EN.720p-NBC.mp4
Format                                   : MPEG-4
Format profile                           : Base Media
Codec ID                                 : isom (isom/iso2/avc1/mp41)
File size                                : 1.56 GiB
Duration                                 : 45mn 46s
Overall bit rate mode                    : Constant
Overall bit rate                         : 4 867 Kbps
Encoded date                             : UTC 1904-01-01 00:00:00
Tagged date                              : UTC 1904-01-01 00:00:00
Writing application                      : Lavf57.83.100

Video
ID                                       : 1
Format                                   : AVC
Format/Info                              : Advanced Video Codec
Format profile                           : High@L3.2
Format settings, CABAC                   : Yes
Format settings, ReFrames                : 4 frames
Format settings, GOP                     : M=4, N=120
Codec ID                                 : avc1
Codec ID/Info                            : Advanced Video Coding
Duration                                 : 45mn 45s
Bit rate mode                            : Constant
Bit rate                                 : 4 700 Kbps
Width                                    : 1 280 pixels
Height                                   : 720 pixels
Display aspect ratio                     : 16:9
Frame rate mode                          : Variable
Frame rate                               : 59.842 fps
Minimum frame rate                       : 0.600 fps
Maximum frame rate                       : 59.960 fps
Original frame rate                      : 59.940 (60000/1001) fps
Color space                              : YUV
Chroma subsampling                       : 4:2:0
Bit depth                                : 8 bits
Scan type                                : Progressive
Bits/(Pixel*Frame)                       : 0.085
Stream size                              : 1.51 GiB (97%)
Encoded date                             : UTC 1904-01-01 00:00:00
Tagged date                              : UTC 1904-01-01 00:00:00

Audio
ID                                       : 2
Format                                   : AAC
Format/Info                              : Advanced Audio Codec
Format profile                           : LC
Codec ID                                 : 40
Duration                                 : 45mn 46s
Bit rate mode                            : Constant
Bit rate                                 : 132 Kbps
Channel(s)                               : 2 channels
Channel positions                        : Front: L R
Sampling rate                            : 44.1 KHz
Frame rate                               : 43.066 fps (1024 spf)
Compression mode                         : Lossy
Stream size                              : 42.6 MiB (3%)
Default                                  : Yes
Alternate group                          : 1
Encoded date                             : UTC 1904-01-01 00:00:00
Tagged date                              : UTC 1904-01-01 00:00:00


Category European Soccer
Rating
Size 1.56 GB
Show/Hide Files
1 file