Torrent’s details
Name WWE NXT 2019 11 27 USAN 720p WEB h264-HEEL
Description General
Complete name                            : WWE.NXT.2019.11.27.USAN.720p.WEB.h264-HEEL.mp4
Format                                   : MPEG-4
Format profile                           : Base Media
Codec ID                                 : isom (isom/iso2/avc1/mp41)
File size                                : 5.04 GiB
Duration                                 : 1 h 40 min
Overall bit rate mode                    : Constant
Overall bit rate                         : 7 170 kb/s
Movie name                               : WWE Smackdown
Law rating                               : TV-PG (V)
Writing application                      : Lavf58.32.104

Video
ID                                       : 1
Format                                   : AVC
Format/Info                              : Advanced Video Codec
Format profile                           : High@L3.2
Format settings                          : CABAC / 4 Ref Frames
Format settings, CABAC                   : Yes
Format settings, Reference frames        : 4 frames
Codec ID                                 : avc1
Codec ID/Info                            : Advanced Video Coding
Duration                                 : 1 h 40 min
Bit rate mode                            : Constant
Bit rate                                 : 7 000 kb/s
Width                                    : 1 280 pixels
Height                                   : 720 pixels
Display aspect ratio                     : 16:9
Frame rate mode                          : Variable
Frame rate                               : 59.940 (60000/1001) FPS
Minimum frame rate                       : 34.247 FPS
Maximum frame rate                       : 60.241 FPS
Color space                              : YUV
Chroma subsampling                       : 4:2:0
Bit depth                                : 8 bits
Scan type                                : Progressive
Bits/(Pixel*Frame)                       : 0.127
Stream size                              : 4.94 GiB (98%)
Codec configuration box                  : avcC

Audio
ID                                       : 2
Format                                   : AAC LC
Format/Info                              : Advanced Audio Codec Low Complexity
Codec ID                                 : mp4a-40-2
Duration                                 : 1 h 40 min
Bit rate mode                            : Constant
Bit rate                                 : 126 kb/s
Channel(s)                               : 2 channels
Channel layout                           : L R
Sampling rate                            : 44.1 kHz
Frame rate                               : 43.066 FPS (1024 SPF)
Compression mode                         : Lossy
Stream size                              : 90.4 MiB (2%)
Default                                  : Yes
Alternate group                          : 1

Text
ID                                       : 1-CC1
Format                                   : EIA-608
Muxing mode                              : SCTE 128 / DTVCC Transport
Muxing mode, more info                   : Muxed in Video #1
Duration                                 : 1 h 40 min
Bit rate mode                            : Constant
Stream size                              : 0.00 Byte (0%)
Encoded stream size                      : 0.00 Byte (0%)
CaptionServiceName                       : CC1

Category Wrestling/Grapling
Rating N/A
Size 5.04 GB
Show/Hide Files
1 file





[ Queries: 24|0 ] - [ Script Execution: 0.0089 sec. ] - [ GZIP: disabled ]