Torrent’s details
Name MLS 2022.08.28 Atlanta United FC vs. DC United (USA national broadcast) unedited SPA+ENG 1080p60 H.264
Description MLS Regular Season
Atlanta United FC vs. DC United

Mercedes-Benz Stadium, Atlanta, GA

This is the unedited stream from Univision, so there are commercials during pregame, halftime, and postgame.

Media info
General
Complete name                            : 2022-08-28 Atlanta United FC vs. DC United unedited.mp4
Format                                   : MPEG-4
Format profile                           : Base Media / Version 2
Codec ID                                 : mp42 (isom/iso2/avc1/mp41)
File size                                : 10.5 GiB
Duration                                 : 2 h 5 min
Overall bit rate mode                    : Variable
Overall bit rate                         : 12.0 Mb/s
Movie name                               : MLS Regular Season: Atlanta United FC vs. DC United
Recorded date                            : 2022-08-28
Encoded date                             : UTC 2022-08-29 05:43:45
Tagged date                              : UTC 2022-08-29 05:43:45
Writing application                      : HandBrake 20200613000000-012a0f1-unknown 2020070101

Video
ID                                       : 1
Format                                   : AVC
Format/Info                              : Advanced Video Codec
Format profile                           : High@L4
Format settings                          : CABAC / 4 Ref Frames
Format settings, CABAC                   : Yes
Format settings, Reference frames        : 4 frames
Codec ID                                 : avc1
Codec ID/Info                            : Advanced Video Coding
Duration                                 : 2 h 4 min
Bit rate                                 : 11.6 Mb/s
Width                                    : 1 920 pixels
Height                                   : 1 080 pixels
Display aspect ratio                     : 16:9
Frame rate mode                          : Variable
Frame rate                               : 59.026 FPS
Minimum frame rate                       : 29.970 FPS
Maximum frame rate                       : 59.960 FPS
Color space                              : YUV
Chroma subsampling                       : 4:2:0
Bit depth                                : 8 bits
Scan type                                : Progressive
Bits/(Pixel*Frame)                       : 0.095
Stream size                              : 10.1 GiB (96%)
Writing library                          : x264 core 159 r2999 296494a
Encoding settings                        : cabac=1 / ref=4 / deblock=1:0:0 / analyse=0x3:0x3 / me=dia / subme=1 / psy=1 / psy_rd=1.00:0.00 / mixed_ref=0 / me_range=16 / chroma_me=1 / trellis=0 / 8x8dct=1 / cqm=0 / deadzone=21,11 / fast_pskip=1 / chroma_qp_offset=0 / threads=9 / lookahead_threads=1 / sliced_threads=0 / nr=0 / decimate=1 / interlaced=0 / bluray_compat=0 / constrained_intra=0 / bframes=5 / b_pyramid=2 / b_adapt=1 / b_bias=0 / direct=1 / weightb=1 / open_gop=0 / weightp=1 / keyint=300 / keyint_min=30 / scenecut=40 / intra_refresh=0 / rc_lookahead=0 / rc=crf / mbtree=0 / crf=22.0 / qcomp=0.60 / qpmin=0 / qpmax=69 / qpstep=4 / vbv_maxrate=25000 / vbv_bufsize=31250 / crf_max=0.0 / nal_hrd=none / filler=0 / ip_ratio=1.40 / pb_ratio=1.30 / aq=1:1.00
Encoded date                             : UTC 2022-08-29 05:43:45
Tagged date                              : UTC 2022-08-29 05:43:45
Color range                              : Limited
Color primaries                          : BT.709
Transfer characteristics                 : BT.709
Matrix coefficients                      : BT.709
Codec configuration box                  : avcC

Audio #1
ID                                       : 2
Format                                   : AC-3
Format/Info                              : Audio Coding 3
Commercial name                          : Dolby Digital
Codec ID                                 : ac-3
Duration                                 : 2 h 5 min
Bit rate mode                            : Constant
Bit rate                                 : 256 kb/s
Channel(s)                               : 6 channels
Channel layout                           : L R C LFE Ls Rs
Sampling rate                            : 48.0 kHz
Frame rate                               : 31.250 FPS (1536 SPF)
Compression mode                         : Lossy
Stream size                              : 229 MiB (2%)
Title                                    : Surround / Surround
Language                                 : Spanish
Service kind                             : Complete Main
Default                                  : Yes
Alternate group                          : 1
Encoded date                             : UTC 2022-08-29 05:43:45
Tagged date                              : UTC 2022-08-29 05:43:45

Audio #2
ID                                       : 3
Format                                   : AC-3
Format/Info                              : Audio Coding 3
Commercial name                          : Dolby Digital
Codec ID                                 : ac-3
Duration                                 : 2 h 5 min
Bit rate mode                            : Constant
Bit rate                                 : 160 kb/s
Channel(s)                               : 2 channels
Channel layout                           : L R
Sampling rate                            : 48.0 kHz
Frame rate                               : 31.250 FPS (1536 SPF)
Compression mode                         : Lossy
Stream size                              : 143 MiB (1%)
Title                                    : Stereo / Stereo
Service kind                             : Complete Main
Default                                  : No
Alternate group                          : 1
Encoded date                             : UTC 2022-08-29 05:43:45
Tagged date                              : UTC 2022-08-29 05:43:45

Text
ID                                       : 4
Format                                   : Timed Text
Muxing mode                              : sbtl
Codec ID                                 : tx3g
Duration                                 : 2 h 1 min
Bit rate mode                            : Variable
Bit rate                                 : 165 b/s
Stream size                              : 147 KiB (0%)
Language                                 : Spanish
Default                                  : Yes
Forced                                   : No
Alternate group                          : 3
Encoded date                             : UTC 2022-08-29 05:43:45
Tagged date                              : UTC 2022-08-29 05:43:45

Category International Soccer
Rating N/A
Size 10.51 GB
Show/Hide Files
1 file