Torrent’s details
Name RPL 2018-2019 Matchday 02 Zenit (St. Petersburg) – Arsenal (Tula) Ryzen HD [04.08.2018, 720p 50 fps, H.264, RU, HDTVRip]
Image
Description RPL 2018-2019  Matchday 02  Zenit (St. Petersburg) – Arsenal (Tula)  Ryzen HD [04.08.2018, 720p 50 fps, H.264, RU, HDTVRip]


Visit my blog



Code
General
Unique ID                                : 61087199835733389203697492959922441433 (0x2DF4F77C2847280C7226BFA447EF4CD9)
Complete name                            : G:Fotbaly lig v evrop?RPL 2018-2019  Matchday 02  Zenit (St. Petersburg) – Arsenal (Tula)  Ryzen HD [04.08.2018, 720p 50 fps, H.264, RU, HDTVRip].mkv
Format                                   : Matroska
Format version                           : Version 2
File size                                : 3.73 GiB
Duration                                 : 2h 5mn
Overall bit rate                         : 4 252 Kbps
Writing application                      : Lavf54.63.104
Writing library                          : Lavf54.63.104

Video
ID                                       : 1
Format                                   : AVC
Format/Info                              : Advanced Video Codec
Format profile                           : High@L3.2
Format settings, CABAC                   : Yes
Format settings, ReFrames                : 4 frames
Format settings, GOP                     : M=2, N=15
Codec ID                                 : V_MPEG4/ISO/AVC
Duration                                 : 2h 5mn
Bit rate                                 : 4 039 Kbps
Width                                    : 1 280 pixels
Height                                   : 720 pixels
Display aspect ratio                     : 16:9
Frame rate mode                          : Constant
Frame rate                               : 50.000 fps
Color space                              : YUV
Chroma subsampling                       : 4:2:0
Bit depth                                : 8 bits
Scan type                                : Progressive
Bits/(Pixel*Frame)                       : 0.088
Stream size                              : 3.54 GiB (95%)
Default                                  : No
Forced                                   : No

Audio
ID                                       : 2
Format                                   : AC-3
Format/Info                              : Audio Coding 3
Mode extension                           : CM (complete main)
Format settings, Endianness              : Big
Codec ID                                 : A_AC3
Duration                                 : 2h 5mn
Bit rate mode                            : Constant
Bit rate                                 : 128 Kbps
Channel(s)                               : 2 channels
Channel positions                        : Front: L R
Sampling rate                            : 48.0 KHz
Compression mode                         : Lossy
Stream size                              : 115 MiB (3%)
Language                                 : Russian
Default                                  : Yes
Forced                                   : No






Category European Soccer
Rating N/A
Size 3.73 GB
Show/Hide Files
1 file