Torrent’s details
Name The Heart of Sergio Ramos S01 1080p AMZN WEBRip DDP5.1 x264-NTb
Description
Quote:
Sergio Ramos captains two powerhouse teams - The Spanish National Team and Real Madrid. Both teams’ rollercoaster of a season is documented through the lens of the press, fans and Sergio himself. Off the field, Sergio’s passions and family life stabilize him as he enjoys the every-day life as a father of three, a partner to his wife, Pilar Rubio, and as an Andalusian (or PRE) stud farmer.



Quote:
1. Family
Sergio Ramos reveals intimate moments in his professional and personal worlds. The intense pressure of captaining The Spanish National Team and Real Madrid is leveled out by Sergio’s family life at home, keeping him calm and feeling loved.


2. Soccer
It’s the week of the Clásico Sergio and his Real Madrid teammates face the formidable Barcelona at their stadium, Camp Nou. Sergio is celebrated and given an award. He films a new web-series featuring other Real Madrid greats, and they talk about the challenges they face while playing and leading such a high-profile team.


3. Roots
Sergio’s life in Seville comes into focus as the rest of the Ramos family and their stud farm business are introduced. Sergio goes away with the Spanish National Team to compete once again, while his prized horse, Yucatán de Ramos, also competes for a top prize. Sergio is paid an important visit while he is away.


4. Achievements
Sergio goes to Seville to see the outcome of Yucatán’s big competition. Real Madrid gets another big shake up within the organization and it produces a positive outcome. René gives Sergio an interesting proposal that will allow him and his inner circle to reflect on the 15 years of his professional career.


5. Memories
2018 ends with a couple of important events. Real Madrid plays a couple of key games that solidify them out of 5th place and they head off to Abu Dhabi for another Club World Cup. Sergio and his family gather important mementos they have accumulated throughout Sergio’s substantial career. And the big celebration features how important soccer has been to Sergio and his family.


6. Music
It’s 2019 and Sergio reflects on his goals for the rest of the season. Real Madrid takes the Copa del Rey tournament head on. And one of Sergio’s favorite soccer plays comes into focus. Sergio’s adventurous spirit takes a musical challenge head on.


7. Fans & Rivals
It’s the penultimate episode, and Sergio and Real Madrid face one of their toughest months in their season. They have a consequential game every three days and face their big rival, Barcelona, three times over the course of 30 days. The fans stand by Real Madrid while they battle for bragging rights against cross town rivals Atlético Madrid. A play in an important game causes an uproar.


8. Legacy
Sergio and Real Madrid face the outcome of a brutal month of games. Real Madrid continue their hopes of achieving a 5th Champions League Title. Sergio questions the longevity he has left in the sport while he imparts a special life lesson to his sons.



Quote:
General
Unique ID                      : 86231249475176721968470104568831268156 (0x40DF88D84F29A0889CE239D5B339D53C)
Complete name                  : E:The Heart of Sergio Ramos S01 1080p AMZN WEBRip DDP5.1 x264-NTbThe.Heart.of.Sergio.Ramos.S01E01.Family.1080p.AMZN.WEBRip.DDP5.1.x264-NTb.mkv
Format                         : Matroska
Format version                 : Version 4
File size                      : 3.15 GiB
Duration                       : 25 min 51 s
Overall bit rate               : 17.4 Mb/s
Encoded date                   : UTC 2019-09-14 15:56:41
Writing application            : mkvmerge v32.0.0 ('Astral Progressions'wink.gif 64-bit
Writing library                : libebml v1.3.7 + libmatroska v1.5.0

Video
ID                             : 1
Format                         : AVC
Format/Info                    : Advanced Video Codec
Format profile                 : High@L4.1
Format settings                : CABAC / 4 Ref Frames
Format settings, CABAC         : Yes
Format settings, Reference fra : 4 frames
Codec ID                       : V_MPEG4/ISO/AVC
Duration                       : 25 min 51 s
Bit rate                       : 16.8 Mb/s
Width                          : 1 920 pixels
Height                         : 1 080 pixels
Display aspect ratio           : 16:9
Frame rate mode                : Constant
Frame rate                     : 23.976 (24000/1001) FPS
Color space                    : YUV
Chroma subsampling             : 4:2:0
Bit depth                      : 8 bits
Scan type                      : Progressive
Bits/(Pixel*Frame)             : 0.338
Stream size                    : 3.03 GiB (96%)
Writing library                : x264 core 157 r2969 d4099dd
Encoding settings              : cabac=1 / ref=4 / deblock=1:-3:-3 / analyse=0x3:0x133 / me=umh / subme=10 / psy=1 / psy_rd=1.00:0.15 / mixed_ref=1 / me_range=48 / chroma_me=1 / trellis=2 / 8x8dct=1 / cqm=0 / deadzone=21,11 / fast_pskip=0 / chroma_qp_offset=-3 / threads=24 / lookahead_threads=4 / sliced_threads=0 / nr=0 / decimate=0 / interlaced=0 / bluray_compat=0 / constrained_intra=0 / bframes=8 / b_pyramid=2 / b_adapt=2 / b_bias=0 / direct=3 / weightb=1 / open_gop=0 / weightp=2 / keyint=250 / keyint_min=23 / scenecut=40 / intra_refresh=0 / rc=crf / mbtree=0 / crf=17.0 / qcomp=0.60 / qpmin=0 / qpmax=69 / qpstep=4 / ip_ratio=1.30 / pb_ratio=1.20 / aq=3:0.80
Language                       : English
Default                        : Yes
Forced                         : No

Audio
ID                             : 2
Format                         : E-AC-3
Format/Info                    : Enhanced AC-3
Commercial name                : Dolby Digital Plus
Codec ID                       : A_EAC3
Duration                       : 25 min 51 s
Bit rate mode                  : Constant
Bit rate                       : 640 kb/s
Channel(s)                     : 6 channels
Channel layout                 : L R C LFE Ls Rs
Sampling rate                  : 48.0 kHz
Frame rate                     : 31.250 FPS (1536 SPF)
Compression mode               : Lossy
Stream size                    : 118 MiB (4%)
Language                       : Spanish
Service kind                   : Complete Main
Default                        : Yes
Forced                         : No

Text #1
ID                             : 3
Format                         : UTF-8
Codec ID                       : S_TEXT/UTF8
Codec ID/Info                  : UTF-8 Plain Text
Duration                       : 25 min 10 s
Bit rate                       : 149 b/s
Count of elements              : 519
Stream size                    : 27.6 KiB (0%)
Language                       : Arabic
Default                        : No
Forced                         : No

Text #2
ID                             : 4
Format                         : UTF-8
Codec ID                       : S_TEXT/UTF8
Codec ID/Info                  : UTF-8 Plain Text
Duration                       : 25 min 0 s
Bit rate                       : 89 b/s
Count of elements              : 515
Stream size                    : 16.5 KiB (0%)
Language                       : Danish
Default                        : No
Forced                         : No

Text #3
ID                             : 5
Format                         : UTF-8
Codec ID                       : S_TEXT/UTF8
Codec ID/Info                  : UTF-8 Plain Text
Duration                       : 25 min 0 s
Bit rate                       : 82 b/s
Count of elements              : 365
Stream size                    : 15.1 KiB (0%)
Language                       : German
Default                        : No
Forced                         : No

Text #4
ID                             : 6
Format                         : UTF-8
Codec ID                       : S_TEXT/UTF8
Codec ID/Info                  : UTF-8 Plain Text
Duration                       : 25 min 10 s
Bit rate                       : 93 b/s
Count of elements              : 511
Stream size                    : 17.2 KiB (0%)
Language                       : English
Default                        : No
Forced                         : No

Text #5
ID                             : 7
Format                         : UTF-8
Codec ID                       : S_TEXT/UTF8
Codec ID/Info                  : UTF-8 Plain Text
Duration                       : 25 min 0 s
Bit rate                       : 89 b/s
Count of elements              : 485
Stream size                    : 16.4 KiB (0%)
Title                          : Latinoamérica
Language                       : Spanish
Default                        : No
Forced                         : No

Text #6
ID                             : 8
Format                         : UTF-8
Codec ID                       : S_TEXT/UTF8
Codec ID/Info                  : UTF-8 Plain Text
Duration                       : 25 min 8 s
Bit rate                       : 102 b/s
Count of elements              : 484
Stream size                    : 18.9 KiB (0%)
Title                          : España SDH
Language                       : Spanish
Default                        : No
Forced                         : No

Text #7
ID                             : 9
Format                         : UTF-8
Codec ID                       : S_TEXT/UTF8
Codec ID/Info                  : UTF-8 Plain Text
Duration                       : 25 min 0 s
Bit rate                       : 86 b/s
Count of elements              : 518
Stream size                    : 15.9 KiB (0%)
Language                       : Finnish
Default                        : No
Forced                         : No

Text #8
ID                             : 10
Format                         : UTF-8
Codec ID                       : S_TEXT/UTF8
Codec ID/Info                  : UTF-8 Plain Text
Duration                       : 25 min 0 s
Bit rate                       : 91 b/s
Count of elements              : 510
Stream size                    : 16.8 KiB (0%)
Language                       : French
Default                        : No
Forced                         : No

Text #9
ID                             : 11
Format                         : UTF-8
Codec ID                       : S_TEXT/UTF8
Codec ID/Info                  : UTF-8 Plain Text
Duration                       : 25 min 10 s
Bit rate                       : 135 b/s
Count of elements              : 525
Stream size                    : 24.9 KiB (0%)
Language                       : Hebrew
Default                        : No
Forced                         : No

Text #10
ID                             : 12
Format                         : UTF-8
Codec ID                       : S_TEXT/UTF8
Codec ID/Info                  : UTF-8 Plain Text
Duration                       : 25 min 10 s
Bit rate                       : 241 b/s
Count of elements              : 517
Stream size                    : 44.5 KiB (0%)
Language                       : Hindi
Default                        : No
Forced                         : No

Text #11
ID                             : 13
Format                         : UTF-8
Codec ID                       : S_TEXT/UTF8
Codec ID/Info                  : UTF-8 Plain Text
Duration                       : 25 min 10 s
Bit rate                       : 81 b/s
Count of elements              : 511
Stream size                    : 15.0 KiB (0%)
Language                       : Indonesian
Default                        : No
Forced                         : No

Text #12
ID                             : 14
Format                         : UTF-8
Codec ID                       : S_TEXT/UTF8
Codec ID/Info                  : UTF-8 Plain Text
Duration                       : 25 min 0 s
Bit rate                       : 92 b/s
Count of elements              : 519
Stream size                    : 16.9 KiB (0%)
Language                       : Italian
Default                        : No
Forced                         : No

Text #13
ID                             : 15
Format                         : UTF-8
Codec ID                       : S_TEXT/UTF8
Codec ID/Info                  : UTF-8 Plain Text
Duration                       : 24 min 59 s
Bit rate                       : 90 b/s
Count of elements              : 490
Stream size                    : 16.5 KiB (0%)
Language                       : Japanese
Default                        : No
Forced                         : No

Text #14
ID                             : 16
Format                         : UTF-8
Codec ID                       : S_TEXT/UTF8
Codec ID/Info                  : UTF-8 Plain Text
Duration                       : 25 min 10 s
Bit rate                       : 93 b/s
Count of elements              : 524
Stream size                    : 17.3 KiB (0%)
Language                       : Korean
Default                        : No
Forced                         : No

Text #15
ID                             : 17
Format                         : UTF-8
Codec ID                       : S_TEXT/UTF8
Codec ID/Info                  : UTF-8 Plain Text
Duration                       : 25 min 0 s
Bit rate                       : 87 b/s
Count of elements              : 507
Stream size                    : 16.1 KiB (0%)
Language                       : Norwegian Bokmal
Default                        : No
Forced                         : No

Text #16
ID                             : 18
Format                         : UTF-8
Codec ID                       : S_TEXT/UTF8
Codec ID/Info                  : UTF-8 Plain Text
Duration                       : 25 min 0 s
Bit rate                       : 90 b/s
Count of elements              : 506
Stream size                    : 16.6 KiB (0%)
Language                       : Dutch
Default                        : No
Forced                         : No

Text #17
ID                             : 19
Format                         : UTF-8
Codec ID                       : S_TEXT/UTF8
Codec ID/Info                  : UTF-8 Plain Text
Duration                       : 25 min 10 s
Bit rate                       : 85 b/s
Count of elements              : 506
Stream size                    : 15.8 KiB (0%)
Language                       : Polish
Default                        : No
Forced                         : No

Text #18
ID                             : 20
Format                         : UTF-8
Codec ID                       : S_TEXT/UTF8
Codec ID/Info                  : UTF-8 Plain Text
Duration                       : 25 min 0 s
Bit rate                       : 90 b/s
Count of elements              : 513
Stream size                    : 16.7 KiB (0%)
Language                       : Portuguese
Default                        : No
Forced                         : No

Text #19
ID                             : 21
Format                         : UTF-8
Codec ID                       : S_TEXT/UTF8
Codec ID/Info                  : UTF-8 Plain Text
Duration                       : 25 min 10 s
Bit rate                       : 154 b/s
Count of elements              : 522
Stream size                    : 28.4 KiB (0%)
Language                       : Russian
Default                        : No
Forced                         : No

Text #20
ID                             : 22
Format                         : UTF-8
Codec ID                       : S_TEXT/UTF8
Codec ID/Info                  : UTF-8 Plain Text
Duration                       : 25 min 0 s
Bit rate                       : 84 b/s
Count of elements              : 510
Stream size                    : 15.5 KiB (0%)
Language                       : Swedish
Default                        : No
Forced                         : No

Text #21
ID                             : 23
Format                         : UTF-8
Codec ID                       : S_TEXT/UTF8
Codec ID/Info                  : UTF-8 Plain Text
Duration                       : 25 min 10 s
Bit rate                       : 286 b/s
Count of elements              : 517
Stream size                    : 52.9 KiB (0%)
Language                       : Tamil
Default                        : No
Forced                         : No

Text #22
ID                             : 24
Format                         : UTF-8
Codec ID                       : S_TEXT/UTF8
Codec ID/Info                  : UTF-8 Plain Text
Duration                       : 25 min 10 s
Bit rate                       : 258 b/s
Count of elements              : 524
Stream size                    : 47.7 KiB (0%)
Language                       : Telugu
Default                        : No
Forced                         : No

Text #23
ID                             : 25
Format                         : UTF-8
Codec ID                       : S_TEXT/UTF8
Codec ID/Info                  : UTF-8 Plain Text
Duration                       : 25 min 10 s
Bit rate                       : 226 b/s
Count of elements              : 525
Stream size                    : 41.8 KiB (0%)
Language                       : Thai
Default                        : No
Forced                         : No

Text #24
ID                             : 26
Format                         : UTF-8
Codec ID                       : S_TEXT/UTF8
Codec ID/Info                  : UTF-8 Plain Text
Duration                       : 25 min 0 s
Bit rate                       : 86 b/s
Count of elements              : 519
Stream size                    : 15.8 KiB (0%)
Language                       : Turkish
Default                        : No
Forced                         : No

Text #25
ID                             : 27
Format                         : UTF-8
Codec ID                       : S_TEXT/UTF8
Codec ID/Info                  : UTF-8 Plain Text
Duration                       : 25 min 10 s
Bit rate                       : 91 b/s
Count of elements              : 525
Stream size                    : 16.9 KiB (0%)
Title                          : 中文(简体)
Language                       : Chinese
Default                        : No
Forced                         : No

Text #26
ID                             : 28
Format                         : UTF-8
Codec ID                       : S_TEXT/UTF8
Codec ID/Info                  : UTF-8 Plain Text
Duration                       : 25 min 10 s
Bit rate                       : 79 b/s
Count of elements              : 524
Stream size                    : 14.7 KiB (0%)
Title                          : 中文(繁體)
Language                       : Chinese
Default                        : No
Forced                         : No

Menu
00:00:00.000                   : en:Amazon Original
00:00:05.000                   : en:Scene 2
00:01:49.000                   : en:Title Sequence
00:01:58.000                   : en:Scene 4
00:04:48.000                   : en:Scene 5
00:07:22.000                   : en:Scene 6
00:08:28.000                   : en:Scene 7
00:11:46.000                   : en:Scene 8
00:12:49.000                   : en:Scene 9
00:13:32.000                   : en:Scene 10
00:16:14.000                   : en:Scene 11
00:18:16.000                   : en:Scene 12
00:24:55.000                   : en:Scene 13
00:25:21.000                   : en:End Credits

Category Documentary
Rating
Size 25.95 GB
Show/Hide Files
8 files