Torrent’s details
Name NBA Playoffs 2020.WCSF.Game 5 Houston Rockets@Los Angeles Lakers.ts
Description General
ID                             : 1 (0x1)
Complete name                  : F:NBA Playoffs 2020.West.Semifinal.Game 5 Houston Rockets @ Los Angeles Lakers.ts
Format                         : MPEG-TS
File size                      : 13.1 GiB
Duration                       : 1 h 42 min
Overall bit rate mode          : Variable
Overall bit rate               : 18.2 Mb/s

Video
ID                             : 101 (0x65)
Menu ID                        : 201 (0xC9)
Format                         : MPEG Video
Commercial name                : HDV 720p
Format version                 : Version 2
Format profile                 : Main@High
Format settings                : CustomMatrix / BVOP
Format settings, BVOP          : Yes
Format settings, Matrix        : Custom
Format settings, GOP           : Variable
Codec ID                       : 2
Duration                       : 1 h 42 min
Bit rate mode                  : Variable
Bit rate                       : 16.9 Mb/s
Maximum bit rate               : 17.5 Mb/s
Width                          : 1 280 pixels
Height                         : 720 pixels
Display aspect ratio           : 16:9
Frame rate                     : 59.940 (60000/1001) FPS
Color space                    : YUV
Chroma subsampling             : 4:2:0
Bit depth                      : 8 bits
Scan type                      : Progressive
Compression mode               : Lossy
Bits/(Pixel*Frame)             : 0.305
Time code of first frame       : 00:00:00;00
Time code source               : Group of pictures header
GOP, Open/Closed               : Open
GOP, Open/Closed of first fram : Closed
Stream size                    : 12.1 GiB (93%)

Audio
ID                             : 102 (0x66)
Menu ID                        : 201 (0xC9)
Format                         : AC-3
Format/Info                    : Audio Coding 3
Commercial name                : Dolby Digital
Codec ID                       : 6
Duration                       : 1 h 42 min
Bit rate mode                  : Constant
Bit rate                       : 448 kb/s
Channel(s)                     : 6 channels
Channel layout                 : L R C LFE Ls Rs
Sampling rate                  : 48.0 kHz
Frame rate                     : 31.250 FPS (1536 SPF)
Bit depth                      : 16 bits
Compression mode               : Lossy
Delay relative to video        : 29 ms
Stream size                    : 330 MiB (2%)
Language                       : English
Service kind                   : Complete Main

Text #1
ID                             : 101 (0x65)-CC1
Menu ID                        : 201 (0xC9)
Format                         : EIA-608
Muxing mode                    : A/53 / DTVCC Transport
Muxing mode, more info         : Muxed in Video #1
Duration                       : 1 h 42 min
Bit rate mode                  : Constant
Stream size                    : 0.00 Byte (0%)
CaptionServiceName             : CC1

Text #2
ID                             : 101 (0x65)-1
Menu ID                        : 201 (0xC9)
Format                         : EIA-708
Muxing mode                    : A/53 / DTVCC Transport
Muxing mode, more info         : Muxed in Video #1
Duration                       : 1 h 42 min
Bit rate mode                  : Constant
Stream size                    : 0.00 Byte (0%)

Category NBA/WNBA
Rating N/A
Size 13.09 GB
Show/Hide Files
1 file