Torrent’s details
Name UK Snooker Championship Extra 2019 Second Round Part 1 2019 12 01 720p iP WEB-DL AAC2 0 H 264-BTN
Description General
Unique ID                                : 194858455432883494226011827569071165740 (0x92985F98AF1D6986F70A66EF7713112C)
Complete name                            : UK.Snooker.Championship.Extra.2019.Second.Round.Part.1.2019.12.01.720p.iP.WEB-DL.AAC2.0.H.264-BTN.mkv
Format                                   : Matroska
Format version                           : Version 4
File size                                : 4.25 GiB
Duration                                 : 1 h 58 min
Overall bit rate                         : 5 115 kb/s
Movie name                               : Second Round - Part 1
Description                              : Hazel Irvine introduces highlights from Saturday afternoon's second-round match.
Encoded date                             : UTC 2019-12-01 09:13:41
Writing application                      : mkvmerge v30.1.0 ('Forever And More'wink.gif 64-bit
Writing library                          : libebml v1.3.6 + libmatroska v1.4.9 / Lavf58.20.100
Copyright                                : 2019 British Broadcasting Corporation, all rights reserved
Comment                                  : Hazel Irvine introduces highlights from Saturday afternoon's second-round match.
ALBUM                                    : UK Snooker Championship Extra: 2019
ALBUM_ARTIST                             : BBC TV
ARTIST                                   : BBC Two
COMPOSER                                 : BBC iPlayer
DATE                                     : 2019-12-01T00:05:00Z
DISC                                     : 2019
EPISODE_ID                               : 201912010005
GENRE                                    : Sport
GROUPING                                 : Sport,Snooker
HD_VIDEO                                 : 1
LYRICS                                   : Hazel Irvine introduces highlights from Saturday afternoon's second-round match. /  / PLAY: https://www.bbc.co.uk/iplayer/episode/m000bxx0 /  / INFO: https://www.bbc.co.uk/programmes/m000bxx0
MEDIA_TYPE                               : 10
NETWORK                                  : BBC Two
SEASON_NUMBER                            : 227
SHOW                                     : UK Snooker Championship Extra: 2019
SYNOPSIS                                 : Hazel Irvine introduces highlights from Saturday afternoon's second-round match. /  / PLAY: https://www.bbc.co.uk/iplayer/episode/m000bxx0 /  / INFO: https://www.bbc.co.uk/programmes/m000bxx0

Video
ID                                       : 1
Format                                   : AVC
Format/Info                              : Advanced Video Codec
Format profile                           : High@L3.2
Format settings                          : CABAC / 4 Ref Frames
Format settings, CABAC                   : Yes
Format settings, Reference frames        : 4 frames
Codec ID                                 : V_MPEG4/ISO/AVC
Duration                                 : 1 h 58 min
Bit rate                                 : 4 984 kb/s
Width                                    : 1 280 pixels
Height                                   : 720 pixels
Display aspect ratio                     : 16:9
Frame rate mode                          : Constant
Frame rate                               : 50.000 FPS
Standard                                 : Component
Color space                              : YUV
Chroma subsampling                       : 4:2:0
Bit depth                                : 8 bits
Scan type                                : Progressive
Bits/(Pixel*Frame)                       : 0.108
Stream size                              : 4.14 GiB (97%)
Default                                  : Yes
Forced                                   : No
Color range                              : Limited
Color primaries                          : BT.709
Transfer characteristics                 : BT.709
Matrix coefficients                      : BT.709

Audio
ID                                       : 2
Format                                   : AAC LC
Format/Info                              : Advanced Audio Codec Low Complexity
Codec ID                                 : A_AAC-2
Duration                                 : 1 h 58 min
Bit rate                                 : 128 kb/s
Channel(s)                               : 2 channels
Channel layout                           : L R
Sampling rate                            : 48.0 kHz
Frame rate                               : 46.875 FPS (1024 SPF)
Compression mode                         : Lossy
Delay relative to video                  : -20 ms
Stream size                              : 109 MiB (3%)
Language                                 : English
Default                                  : Yes
Forced                                   : No

Text
ID                                       : 3
Format                                   : UTF-8
Codec ID                                 : S_TEXT/UTF8
Codec ID/Info                            : UTF-8 Plain Text
Duration                                 : 1 h 58 min
Bit rate                                 : 90 b/s
Count of elements                        : 692
Stream size                              : 78.0 KiB (0%)
Default                                  : Yes
Forced                                   : No

Category Snooker/Pool
Rating N/A
Size 4.25 GB
Show/Hide Files
1 file





[ Queries: 24|0 ] - [ Script Execution: 0.0072 sec. ] - [ GZIP: disabled ]