Torrent’s details
Name Formula1 2021 United States Grand Prix 2160p UHDTV DD2.0 H.265 | ENG | RO
Image
Description
Quote:
General
Unique ID                                : 10713555320560332684710953842263586624 (0x80F5B0F2C49D8424BCE79A59A81F740)
Complete name                            : Formula1.2021.United.States.Grand.Prix.2160p.UHDTV.DD2.0.H.265-playTV.mkv
Format                                   : Matroska
Format version                           : Version 4
File size                                : 22.5 GiB
Duration                                 : 2 h 7 min
Overall bit rate                         : 25.2 Mb/s
Encoded date                             : UTC 2021-10-25 08:26:40
Writing application                      : mkvmerge v53.0.0 ('Fool's Gold'wink.gif 64-bit
Writing library                          : libebml v1.4.1 + libmatroska v1.6.2

Video
ID                                       : 1
Format                                   : HEVC
Format/Info                              : High Efficiency Video Coding
Format profile                           : Main 10@L5.1@High
Codec ID                                 : V_MPEGH/ISO/HEVC
Duration                                 : 2 h 7 min
Bit rate                                 : 24.8 Mb/s
Width                                    : 3 840 pixels
Height                                   : 2 160 pixels
Display aspect ratio                     : 16:9
Frame rate mode                          : Constant
Frame rate                               : 50.000 FPS
Standard                                 : Component
Color space                              : YUV
Chroma subsampling                       : 4:2:0 (Type 0)
Bit depth                                : 10 bits
Bits/(Pixel*Frame)                       : 0.060
Stream size                              : 22.2 GiB (98%)
Default                                  : Yes
Forced                                   : No
Color range                              : Limited
Color primaries                          : BT.709
Transfer characteristics                 : BT.709
Matrix coefficients                      : BT.709

Audio #1
ID                                       : 2
Format                                   : AC-3
Format/Info                              : Audio Coding 3
Commercial name                          : Dolby Digital
Codec ID                                 : A_AC3
Duration                                 : 2 h 4 min
Bit rate mode                            : Constant
Bit rate                                 : 192 kb/s
Channel(s)                               : 2 channels
Channel layout                           : L R
Sampling rate                            : 48.0 kHz
Frame rate                               : 31.250 FPS (1536 SPF)
Compression mode                         : Lossy
Delay relative to video                  : 8 s 200 ms
Stream size                              : 171 MiB (1%)
Title                                    : SKY Sports F1 - Audio Track
Language                                 : English
Service kind                             : Complete Main
Default                                  : Yes
Forced                                   : No

Audio #2
ID                                       : 3
Format                                   : AC-3
Format/Info                              : Audio Coding 3
Commercial name                          : Dolby Digital
Codec ID                                 : A_AC3
Duration                                 : 2 h 7 min
Bit rate mode                            : Constant
Bit rate                                 : 224 kb/s
Channel(s)                               : 2 channels
Channel layout                           : L R
Sampling rate                            : 48.0 kHz
Frame rate                               : 31.250 FPS (1536 SPF)
Compression mode                         : Lossy
Delay relative to video                  : -40 ms
Stream size                              : 205 MiB (1%)
Title                                    : Digi 4K - Audio Track
Language                                 : Romanian
Service kind                             : Complete Main
Default                                  : No
Forced                                   : No



Category Formula1
Rating N/A
Size 22.52 GB
Show/Hide Files
1 file