Torrent’s details
Name MLB | Condensed Game | Cleveland Indians vs. Minnesota Twins 2019-09-07 | 720p 60fps | English
Image
Description Complete name                            : MLB | Condensed Game | Cleveland Indians vs. Minnesota Twins 2019-09-07 | 720p 60fps | English.mp4
Format                                   : MPEG-4
Format profile                           : Base Media
Codec ID                                 : isom (isom/iso2/avc1/mp42)
File size                                : 161 MiB
Duration                                 : 5 min 27 s
Overall bit rate mode                    : Variable
Overall bit rate                         : 4 124 kb/s
Writing application                      : Lavf55.33.100

Video
ID                                       : 1
Format                                   : AVC
Format/Info                              : Advanced Video Codec
Format profile                           : High@L4.1
Format settings                          : CABAC / 3 Ref Frames
Format settings, CABAC                   : Yes
Format settings, Reference frames        : 3 frames
Codec ID                                 : avc1
Codec ID/Info                            : Advanced Video Coding
Duration                                 : 5 min 27 s
Bit rate mode                            : Constant
Bit rate                                 : 4 000 kb/s
Width                                    : 1 280 pixels
Height                                   : 720 pixels
Display aspect ratio                     : 16:9
Frame rate mode                          : Variable
Frame rate                               : 59.940 (60000/1001) FPS
Minimum frame rate                       : 59.920 FPS
Maximum frame rate                       : 60.000 FPS
Color space                              : YUV
Chroma subsampling                       : 4:2:0
Bit depth                                : 8 bits
Scan type                                : Progressive
Bits/(Pixel*Frame)                       : 0.072
Stream size                              : 156 MiB (97%)
Codec configuration box                  : avcC

Audio
ID                                       : 2
Format                                   : AAC LC
Format/Info                              : Advanced Audio Codec Low Complexity
Codec ID                                 : mp4a-40-2
Duration                                 : 5 min 27 s
Bit rate mode                            : Variable
Bit rate                                 : 114 kb/s
Maximum bit rate                         : 192 kb/s
Channel(s)                               : 2 channels
Channel layout                           : L R
Sampling rate                            : 48.0 kHz
Frame rate                               : 46.875 FPS (1024 SPF)
Compression mode                         : Lossy
Stream size                              : 4.43 MiB (3%)
Default                                  : Yes
Alternate group                          : 1

Category Baseball
Rating N/A
Size 160.86 MB
Show/Hide Files
1 file