Torrent’s details
Name La Liga 2021-22 Round 1 Highlights 1080i HDTV DD2.0 H.264-RUD
Description General
ID                                       : 1 (0x1)
Complete name                            : E:La Liga 2021-22 Round 1 Highlights 1080i HDTV DD2.0 H.264-RUD.ts
Format                                   : MPEG-TS
File size                                : 2.68 GiB
Duration                                 : 42 min 43 s
Overall bit rate mode                    : Variable
Overall bit rate                         : 8 992 kb/s

Video
ID                                       : 17 (0x11)
Menu ID                                  : 1 (0x1)
Format                                   : AVC
Format/Info                              : Advanced Video Codec
Format profile                           : High@L4
Format settings                          : CABAC / 3 Ref Frames
Format settings, CABAC                   : Yes
Format settings, Reference frames        : 3 frames
Codec ID                                 : 27
Duration                                 : 42 min 43 s
Bit rate mode                            : Constant
Bit rate                                 : 8 726 kb/s
Width                                    : 1 920 pixels
Height                                   : 1 080 pixels
Display aspect ratio                     : 16:9
Frame rate                               : 25.000 FPS
Color space                              : YUV
Chroma subsampling                       : 4:2:0
Bit depth                                : 8 bits
Scan type                                : MBAFF
Scan type, store method                  : Interleaved fields
Scan order                               : Top Field First
Bits/(Pixel*Frame)                       : 0.168
Stream size                              : 2.49 GiB (93%)
Color range                              : Limited
Color primaries                          : BT.709
Transfer characteristics                 : BT.709
Matrix coefficients                      : BT.709

Audio
ID                                       : 20 (0x14)
Menu ID                                  : 1 (0x1)
Format                                   : AC-3
Format/Info                              : Audio Coding 3
Commercial name                          : Dolby Digital
Codec ID                                 : 129
Duration                                 : 42 min 42 s
Bit rate mode                            : Constant
Bit rate                                 : 192 kb/s
Channel(s)                               : 2 channels
Channel layout                           : L R
Sampling rate                            : 48.0 kHz
Frame rate                               : 31.250 FPS (1536 SPF)
Compression mode                         : Lossy
Delay relative to video                  : 24 ms
Stream size                              : 58.7 MiB (2%)
Service kind                             : Complete Main

Category La Liga
Rating
Size 2.68 GB
Show/Hide Files
1 file