Torrent’s details
Name NFL Super Bowl XLIX (49) 2015 Patriots vs Seahawks 1080i 32Mbps HDTV DD5 1 H 264-TrollHD
Description
Quote:
Format                                   : MPEG-TS
File size                                : 67.5 GiB
Duration                                 : 4h 44mn
Overall bit rate mode                    : Variable
Overall bit rate                         : 34.0 Mbps
Maximum Overall bit rate                 : 35.5 Mbps

Video
ID                                       : 4113 (0x1011)
Menu ID                                  : 1 (0x1)
Format                                   : AVC
Format/Info                              : Advanced Video Codec
Format profile                           : High@L4.1
Format settings, CABAC                   : Yes
Format settings, ReFrames                : 3 frames
Format settings, GOP                     : M=1, N=15
Codec ID                                 : 27
Duration                                 : 4h 44mn
Bit rate mode                            : Constant
Bit rate                                 : 32.5 Mbps
Width                                    : 1 920 pixels
Height                                   : 1 080 pixels
Display aspect ratio                     : 16:9
Frame rate                               : 29.970 fps
Color space                              : YUV
Chroma subsampling                       : 4:2:0
Bit depth                                : 8 bits
Scan type                                : Interlaced
Scan order                               : Top Field First
Bits/(Pixel*Frame)                       : 0.523
Stream size                              : 62.9 GiB (93%)
Color primaries                          : BT.709
Transfer characteristics                 : BT.709
Matrix coefficients                      : BT.709

Audio
ID                                       : 4352 (0x1100)
Menu ID                                  : 1 (0x1)
Format                                   : AC-3
Format/Info                              : Audio Coding 3
Mode extension                           : CM (complete main)
Format settings, Endianness              : Big
Codec ID                                 : 129
Duration                                 : 4h 44mn
Bit rate mode                            : Constant
Bit rate                                 : 640 Kbps
Channel(s)                               : 6 channels
Channel positions                        : Front: L C R, Side: L R, LFE
Sampling rate                            : 48.0 KHz
Bit depth                                : 16 bits
Compression mode                         : Lossy
Stream size                              : 1.27 GiB (2%)
Language                                 : English









Category NFL
Rating N/A
Size 67.53 GB
Show/Hide Files
1 file