Torrent’s details
Name Match of the Day 2018-03-10 720p HDTV DD5.1 50fps x264-wAm
Description General
Unique ID                   : 174795703652229665042304739257438654327 (0x83806D903080D4C083F61E19DDC74F77)
Complete name               : E:500GBDownloadsMatch of the Day 2018-03-10 720p HDTV DD5.1 50fps x264-wAm.mkv
Format                      : Matroska
Format version              : Version 4 / Version 2
File size                   : 2.86 GiB
Duration                    : 1 h 24 min
Overall bit rate            : 4 874 kb/s
Writing application         : Lavf57.71.100
Writing library             : Lavf57.71.100
ErrorDetectionType          : Per level 1

Video
ID                          : 1
Format                      : AVC
Format/Info                 : Advanced Video Codec
Format profile              : High@L4.1
Format settings             : CABAC / 4 Ref Frames
Format settings, CABAC      : Yes
Format settings, ReFrames   : 4 frames
Codec ID                    : V_MPEG4/ISO/AVC
Duration                    : 1 h 24 min
Bit rate                    : 4 393 kb/s
Width                       : 1 280 pixels
Height                      : 720 pixels
Display aspect ratio        : 16:9
Frame rate mode             : Constant
Frame rate                  : 50.000 FPS
Color space                 : YUV
Chroma subsampling          : 4:2:0
Bit depth                   : 8 bits
Scan type                   : Progressive
Bits/(Pixel*Frame)          : 0.095
Stream size                 : 2.58 GiB (90%)
Default                     : Yes
Forced                      : No

Audio
ID                          : 2
Format                      : AC-3
Format/Info                 : Audio Coding 3
Codec ID                    : A_AC3
Duration                    : 1 h 24 min
Bit rate mode               : Constant
Bit rate                    : 384 kb/s
Channel(s)                  : 6 channels
Channel positions           : Front: L C R, Side: L R, LFE
Sampling rate               : 48.0 kHz
Frame rate                  : 31.250 FPS (1536 SPF)
Bit depth                   : 16 bits
Compression mode            : Lossy
Delay relative to video     : 150 ms
Stream size                 : 231 MiB (8%)
Service kind                : Complete Main
Default                     : Yes
Forced                      : No

Category EPL
Rating
Size 2.86 GB
Show/Hide Files
1 file