Torrent’s details
Name NHL.2022.04.21.Chicago.Blackhawks.vs.Los.Angeles.Kings.720p.WEB.H.264-SPORTSNET
Description General
Unique ID : 310866564599247601673535570178831655691 (0xE9DEB8F8D7E4FAB3E45083225811A30B)
Complete name : sportsnet-nhl.2022.04.21.chicago.blackhawks.vs.los.angeles.kings.720p.web.h264.mkv
Format : Matroska
Format version : Version 4
File size : 4.51 GiB
Duration : 1 h 56 min
Overall bit rate : 5 530 kb/s
Encoded date : UTC 2022-04-23 16:18:09
Writing application : mkvmerge v51.0.0 ('I Wish'wink.gif 64-bit
Writing library : libebml v1.4.0 + libmatroska v1.6.2

Video
ID : 1
Format : AVC
Format/Info : Advanced Video Codec
Format profile : High@L4
Format settings : CABAC / 4 Ref Frames
Format settings, CABAC : Yes
Format settings, Reference frames : 4 frames
Codec ID : V_MPEG4/ISO/AVC
Duration : 1 h 56 min
Bit rate mode : Constant
Bit rate : 5 472 kb/s
Width : 1 280 pixels
Height : 720 pixels
Display aspect ratio : 16:9
Frame rate mode : Variable
Frame rate : 59.819 FPS
Original frame rate : 59.940 (60000/1001) FPS
Color space : YUV
Chroma subsampling : 4:2:0
Bit depth : 8 bits
Scan type : Progressive
Bits/(Pixel*Frame) : 0.099
Stream size : 4.41 GiB (98%)
Default : Yes
Forced : No

Audio
ID : 2
Format : AAC LC
Format/Info : Advanced Audio Codec Low Complexity
Codec ID : A_AAC-2
Duration : 1 h 56 min
Bit rate : 125 kb/s
Channel(s) : 2 channels
Channel layout : L R
Sampling rate : 48.0 kHz
Frame rate : 46.875 FPS (1024 SPF)
Compression mode : Lossy
Delay relative to video : 5 ms
Stream size : 105 MiB (2%)
Language : English
Default : Yes
Forced : No
Category NHL
Rating N/A
Size 4.51 GB
Show/Hide Files
1 file