Torrent’s details
Name Formula 1 2019/09/08 Italian Grand Prix Race 1080p HDTV 50fps ENG | SKY
Image
Description COMPLETE SKY Sports F1 Race Day coverage -- approx. 5 hrs in all!

___________________________


Formula.1.2019x14.Italy.Race.SkyF1HD.1080p -- an smcgill1969 release

* 01.Pre-Race.Buildup.mp4 ------- 4.15 GB -- 1 h 34 min
* 02.Race.Session.mp4 ------------ 4.47 GB -- 1 h 41 min
* 03.Post-Race.Analysis.mp4 ---- 4.56 GB -- 1 h 44 min

___________________________



General
Complete name : 02.Race.Session.mp4
Format : MPEG-4
Format profile : Base Media
Codec ID : isom (isom/iso2/avc1/mp41)
File size : 4.47 GiB
Duration : 1 h 41 min
Overall bit rate mode : Variable
Overall bit rate : 6 267 kb/s
Encoded date : UTC 1904-01-01 00:00:00
Tagged date : UTC 1904-01-01 00:00:00
Writing application : Lavf58.17.101

Video
ID : 1
Format : AVC
Format/Info : Advanced Video Codec
Format profile : High@L4.2
Format settings, CABAC : Yes
Format settings, ReFrames : 2 frames
Format settings, GOP : M=3, N=24
Codec ID : avc1
Codec ID/Info : Advanced Video Coding
Duration : 1 h 41 min
Duration_FirstFrame : 15 ms
Bit rate mode : Variable
Bit rate : 5 997 kb/s
Maximum bit rate : 12.4 Mb/s
Width : 1 920 pixels
Height : 1 080 pixels
Original height : 1 088 pixels
Display aspect ratio : 16:9
Original display aspect ratio : 16:9
Frame rate mode : Constant
Frame rate : 50.000 FPS
Color space : YUV
Chroma subsampling : 4:2:0
Bit depth : 8 bits
Scan type : Progressive
Bits/(Pixel*Frame) : 0.058
Stream size : 4.27 GiB (96%)
Language : English
Encoded date : UTC 1904-01-01 00:00:00
Tagged date : UTC 1904-01-01 00:00:00

Audio
ID : 2
Format : AAC
Format/Info : Advanced Audio Codec
Format profile : LC
Codec ID : 40
Duration : 1 h 41 min
Bit rate mode : Constant
Bit rate : 258 kb/s
Channel(s) : 2 channels
Channel positions : Front: L R
Sampling rate : 48.0 kHz
Frame rate : 46.875 FPS (1024 spf)
Compression mode : Lossy
Stream size : 188 MiB (4%)
Language : English
Default : Yes
Alternate group : 1
Encoded date : UTC 1904-01-01 00:00:00
Tagged date : UTC 1904-01-01 00:00:00


Respect to Mr. McGill! cool2.gif drunk.gif sleep.gif
Category Formula1
Rating N/A
Size 13.18 GB
Show/Hide Files
3 files





[ Queries: 24|0 ] - [ Script Execution: 0.0070 sec. ] - [ GZIP: disabled ]