Torrent’s details
Name Formula1 2019 Abu Dhabi Grand Prix Pre-Race 720p HDTV DD5.1 50fps x264-wAm
Image
Description SKYSPORTS F1
PIT LANE LIVE + ON THE GRID LIVE
DOLBY DIGITAL 5.1 SURROUND SOUND
ADVERTS REMOVED



Format version              : Version 4
File size                   : 3.20 GiB
Duration                    : 1 h 19 min
Overall bit rate            : 5 729 kb/s
Writing application         : Lavf58.29.100
Writing library             : Lavf58.29.100
ErrorDetectionType          : Per level 1

Video
ID                          : 1
Format                      : AVC
Format/Info                 : Advanced Video Codec
Format profile              : High@L4.1
Format settings             : CABAC / 9 Ref Frames
Format settings, CABAC      : Yes
Format settings, Reference  : 9 frames
Codec ID                    : V_MPEG4/ISO/AVC
Duration                    : 1 h 19 min
Bit rate                    : 5 231 kb/s
Width                       : 1 280 pixels
Height                      : 720 pixels
Display aspect ratio        : 16:9
Frame rate mode             : Constant
Frame rate                  : 50.000 FPS
Color space                 : YUV
Chroma subsampling          : 4:2:0
Bit depth                   : 8 bits
Scan type                   : Progressive
Bits/(Pixel*Frame)          : 0.114
Stream size                 : 2.92 GiB (91%)
Writing library             : x264 core 152 r2851bm ba24899
Encoding settings           : cabac=1 / ref=9 / deblock=1:-3:-3 / analyse=0x3:0x113 /
me=umh / subme=9 / psy=1 / psy_rd=1.00:0.15 / mixed_ref=1 / me_range=24 /
chroma_me=1 / trellis=2 / 8x8dct=1 / cqm=0 / deadzone=21,11 / fast_pskip=1 /
chroma_qp_offset=-3 / threads=64 / lookahead_threads=5 / sliced_threads=0 /
nr=0 / decimate=1 / interlaced=0 / bluray_compat=0 / constrained_intra=0 /
bframes=8 / b_pyramid=2 / b_adapt=2 / b_bias=0 / direct=1 / weightb=1 /
open_gop=0 / weightp=2 / keyint=250 / keyint_min=25 / scenecut=40 /
intra_refresh=0 / rc_lookahead=40 / rc=crf / mbtree=1 / crf=18.9 / qcomp=0.60 /
qpmin=0 / qpmax=69 / qpstep=4 / ip_ratio=1.40 / aq=3:0.80
Default                     : Yes
Forced                      : No

Audio
ID                          : 2
Format                      : AC-3
Format/Info                 : Audio Coding 3
Commercial name             : Dolby Digital
Codec ID                    : A_AC3
Duration                    : 1 h 19 min
Bit rate mode               : Constant
Bit rate                    : 384 kb/s
Channel(s)                  : 6 channels
Channel layout              : L R C LFE Ls Rs
Sampling rate               : 48.0 kHz
Frame rate                  : 31.250 FPS (1536 SPF)
Bit depth                   : 16 bits
Compression mode            : Lossy
Delay relative to video     : 570 ms
Stream size                 : 219 MiB (7%)
Service kind                : Complete Main
Default                     : Yes
Forced                      : No

Category Formula1
Rating
Size 3.20 GB
Show/Hide Files
1 file





[ Queries: 24|0 ] - [ Script Execution: 0.0086 sec. ] - [ GZIP: disabled ]