Torrent’s details
Name NBA 2011 Finals Miami Heat vs. Dallas Mavericks Game 4 3D 720p HDTV DD2.0 MPEG2-TrollHD
Description General
ID                                       : 1 (0x1)
Complete name                            : 2011 NBA Finals Miami Heat vs. Dallas Mavericks Game 4 3D 720p HDTV DD2.0 MPEG2-TrollHD.ts
Format                                   : MPEG-TS
File size                                : 19.5 GiB
Duration                                 : 2 h 50 min
Overall bit rate mode                    : Variable
Overall bit rate                         : 16.3 Mb/s
Frame rate                               : 59.940 FPS

Video
ID                                       : 575 (0x23F)
Menu ID                                  : 1 (0x1)
Format                                   : MPEG Video
Commercial name                          : HDV 720p
Format version                           : Version 2
Format profile                           : Main@High
Format settings                          : CustomMatrix / BVOP
Format settings, BVOP                    : Yes
Format settings, Matrix                  : Custom
Format settings, GOP                     : M=3, N=15
Codec ID                                 : 2
Duration                                 : 2 h 50 min
Bit rate mode                            : Variable
Bit rate                                 : 15.3 Mb/s
Maximum bit rate                         : 18.0 Mb/s
Width                                    : 1 280 pixels
Height                                   : 720 pixels
Display aspect ratio                     : 16:9
Frame rate                               : 59.940 (60000/1001) FPS
Standard                                 : Component
Color space                              : YUV
Chroma subsampling                       : 4:2:0
Bit depth                                : 8 bits
Scan type                                : Progressive
Compression mode                         : Lossy
Bits/(Pixel*Frame)                       : 0.276
Time code of first frame                 : 00:00:00;00
Time code source                         : Group of pictures header
GOP, Open/Closed                         : Open
GOP, Open/Closed of first frame          : Closed
Stream size                              : 18.2 GiB (93%)

Audio
ID                                       : 574 (0x23E)
Menu ID                                  : 1 (0x1)
Format                                   : AC-3
Format/Info                              : Audio Coding 3
Commercial name                          : Dolby Digital
Codec ID                                 : 129
Duration                                 : 2 h 50 min
Bit rate mode                            : Constant
Bit rate                                 : 256 kb/s
Channel(s)                               : 2 channels
Channel layout                           : L R
Sampling rate                            : 48.0 kHz
Frame rate                               : 31.250 FPS (1536 SPF)
Compression mode                         : Lossy
Stream size                              : 313 MiB (2%)
Language                                 : English
Service kind                             : Complete Main
Category NBA/WNBA
Rating N/A
Size 19.45 GB
Show/Hide Files
1 file