Torrent’s details
Name UFC.on.ABC.3.Ortega.vs.Rodriguez.16.07.2022.1080i.HDTV.MPA2.0.H.264-playTV RO
Description General
Unique ID                                : 26127908080282661966837447614032508950 (0x13A80D53841169E9229A4D3950DFF816)
Complete name                            : UFC.on.ABC.3.Ortega.vs.Rodriguez.16.07.2022.1080i.HDTV.MPA2.0.H.264-playTV.mkv
Format                                   : Matroska
Format version                           : Version 4
File size                                : 10.4 GiB
Duration                                 : 2 h 19 min
Overall bit rate                         : 10.7 Mb/s
Encoded date                             : UTC 2022-07-17 08:37:50
Writing application                      : mkvmerge v55.0.0 ('Waiting For Space'wink.gif 64-bit
Writing library                          : libebml v1.4.2 + libmatroska v1.6.4

Video
ID                                       : 1
Format                                   : AVC
Format/Info                              : Advanced Video Codec
Format profile                           : High@L4.1
Format settings                          : CABAC / 4 Ref Frames
Format settings, CABAC                   : Yes
Format settings, Reference frames        : 4 frames
Codec ID                                 : V_MPEG4/ISO/AVC
Duration                                 : 2 h 19 min
Bit rate                                 : 10.4 Mb/s
Nominal bit rate                         : 11.9 Mb/s
Width                                    : 1 920 pixels
Height                                   : 1 080 pixels
Display aspect ratio                     : 16:9
Frame rate mode                          : Variable
Frame rate                               : 50.000 FPS
Original frame rate                      : 25.000 FPS
Color space                              : YUV
Chroma subsampling                       : 4:2:0
Bit depth                                : 8 bits
Scan type                                : Interlaced
Scan type, store method                  : Separated fields
Scan order                               : Top Field First
Bits/(Pixel*Frame)                       : 0.100
Stream size                              : 10.1 GiB (98%)
Default                                  : Yes
Forced                                   : No
Color range                              : Limited
Color primaries                          : BT.709
Transfer characteristics                 : BT.709
Matrix coefficients                      : BT.709

Audio
ID                                       : 2
Format                                   : MPEG Audio
Format version                           : Version 1
Format profile                           : Layer 2
Codec ID                                 : A_MPEG/L2
Codec ID/Hint                            : MP2
Duration                                 : 2 h 19 min
Bit rate mode                            : Constant
Bit rate                                 : 256 kb/s
Channel(s)                               : 2 channels
Sampling rate                            : 48.0 kHz
Frame rate                               : 41.667 FPS (1152 SPF)
Compression mode                         : Lossy
Stream size                              : 255 MiB (2%)
Language                                 : Romanian
Default                                  : Yes
Forced                                   : No



UFC.on.ABC.3.Ortega.vs.Rodriguez.16.07.2022.
1080i.HDTV.MPA2.0.H.264-playTV


* RELEASE iNFO *

RELEASE NAME.........: UFC.on.ABC.3.Ortega.vs.Rodriguez.16.07.2022.1080i.HDTV.MPA2.0.H.264-playTV
GENRE................: UFC, Fighting
RUNTIME..............: 2h 22min
VIDEO CODEC..........: H.264
FRAMERATE ...........: 50.000 FPS
AVG BITRATE .........: 10.4 Mb/s
RELEASE SIZE.........: 10.38 GB
RESOLUTION ..........: 1920x1080
ASPECT RATIO ........: 16:9
AUDIO ...............: Romanian @ MPEG Audio - 2 channels / 256 Kbps
SOURCE ..............: PRO Arena HD

* SCREENSHOTS *
  -----------  





* NOTES *
-----------

 Enjoy! smile1.gif
Category MMA
Rating N/A
Size 10.38 GB
Show/Hide Files
1 file