Torrent’s details
Name Brasileirão Palmeiras - Santos 3 11 25fps Spa
Description General
ID                             : 1004 (0x3EC)
Complete name                  : C:MexicoBrasileirao Palmeiras - Santos 3 11 18.ts
Format                         : MPEG-TS
File size                      : 8.15 GiB
Duration                       : 1 h 46 min
Overall bit rate mode          : Variable
Overall bit rate               : 10.9 Mb/s

Video
ID                             : 160 (0xA0)
Menu ID                        : 30900 (0x78B4)
Format                         : AVC
Format/Info                    : Advanced Video Codec
Format profile                 : High@L4
Format settings, CABAC         : Yes
Format settings, RefFrames     : 4 frames
Format settings, GOP           : M=4, N=24
Codec ID                       : 27
Duration                       : 1 h 46 min
Bit rate                       : 9 363 kb/s
Width                          : 1 920 pixels
Height                         : 1 080 pixels
Display aspect ratio           : 16:9
Frame rate                     : 25.000 FPS
Color space                    : YUV
Chroma subsampling             : 4:2:0
Bit depth                      : 8 bits
Scan type                      : Interlaced
Scan type, store method        : Separated fields
Scan order                     : Top Field First
Bits/(Pixel*Frame)             : 0.181
Stream size                    : 6.98 GiB (86%)
Encryption                     : Nagravision
Color range                    : Limited
Color primaries                : BT.709
Transfer characteristics       : BT.709
Matrix coefficients            : BT.709

Audio #1
ID                             : 80 (0x50)
Menu ID                        : 30900 (0x78B4)
Format                         : AC-3
Format/Info                    : Audio Coding 3
Format settings, Endianness    : Big
Codec ID                       : 6
Duration                       : 1 h 46 min
Bit rate mode                  : Constant
Bit rate                       : 192 kb/s
Channel(s)                     : 2 channels
Channel positions              : Front: L R
Sampling rate                  : 48.0 kHz
Frame rate                     : 31.250 FPS (1536 SPF)
Bit depth                      : 16 bits
Compression mode               : Lossy
Delay relative to video        : 144 ms
Stream size                    : 147 MiB (2%)
Language                       : Spanish
Language, more info            : Clean effects
Service kind                   : Complete Main
Encryption                     : Nagravision

Audio #2
ID                             : 81 (0x51)
Menu ID                        : 30900 (0x78B4)
Format                         : AC-3
Format/Info                    : Audio Coding 3
Format settings, Endianness    : Big
Codec ID                       : 6
Duration                       : 1 h 46 min
Bit rate mode                  : Constant
Bit rate                       : 192 kb/s
Channel(s)                     : 2 channels
Channel positions              : Front: L R
Sampling rate                  : 48.0 kHz
Frame rate                     : 31.250 FPS (1536 SPF)
Bit depth                      : 16 bits
Compression mode               : Lossy
Delay relative to video        : 80 ms
Stream size                    : 146 MiB (2%)
Language                       : qaa
Language, more info            : Clean effects
Service kind                   : Complete Main
Encryption                     : Nagravision

Audio #3
ID                             : 82 (0x52)
Menu ID                        : 30900 (0x78B4)
Format                         : MPEG Audio
Format version                 : Version 1
Format profile                 : Layer 2
Mode                           : Joint stereo
Mode extension                 : Intensity Stereo
Codec ID                       : 4
Duration                       : 1 h 46 min
Bit rate mode                  : Constant
Bit rate                       : 160 kb/s
Channel(s)                     : 2 channels
Sampling rate                  : 48.0 kHz
Compression mode               : Lossy
Delay relative to video        : 40 ms
Stream size                    : 122 MiB (1%)
Encryption                     : Nagravision

Audio #4
ID                             : 83 (0x53)
Menu ID                        : 30900 (0x78B4)
Format                         : MPEG Audio
Format version                 : Version 1
Format profile                 : Layer 2
Mode                           : Joint stereo
Mode extension                 : Intensity Stereo
Codec ID                       : 4
Duration                       : 1 h 46 min
Bit rate mode                  : Constant
Bit rate                       : 160 kb/s
Channel(s)                     : 2 channels
Sampling rate                  : 48.0 kHz
Compression mode               : Lossy
Delay relative to video        : 40 ms
Stream size                    : 122 MiB (1%)
Encryption                     : Nagravision

Audio #5
ID                             : 110 (0x6E)
Menu ID                        : 30900 (0x78B4)
Format                         : MPEG Audio
Format version                 : Version 1
Format profile                 : Layer 2
Codec ID                       : 4
Duration                       : 1 h 46 min
Bit rate mode                  : Constant
Bit rate                       : 160 kb/s
Channel(s)                     : 2 channels
Sampling rate                  : 48.0 kHz
Compression mode               : Lossy
Delay relative to video        : 40 ms
Stream size                    : 122 MiB (1%)
Encryption                     : Nagravision

Audio #6
ID                             : 111 (0x6F)
Menu ID                        : 30900 (0x78B4)
Format                         : MPEG Audio
Format version                 : Version 1
Format profile                 : Layer 2
Codec ID                       : 4
Duration                       : 1 h 46 min
Bit rate mode                  : Constant
Bit rate                       : 160 kb/s
Channel(s)                     : 2 channels
Sampling rate                  : 48.0 kHz
Compression mode               : Lossy
Delay relative to video        : 40 ms
Stream size                    : 122 MiB (1%)
Encryption                     : Nagravision

Category International Soccer
Rating N/A
Size 8.15 GB
Show/Hide Files
1 file