Torrent’s details
Name Formula 1 - Saudi Arabian Grand Prix Race | Round 2 | 2160p | SkySports F1 UHD Live HDR
Description
Quote:
General
Complete name                            : Formula 1 2022 - Round 2 -  Saudi Arabian GP - SkySport F1 UHD Live HDR.ts
Format                                   : MPEG-TS
File size                                : 21.9 GiB
Duration                                 : 1 h 51 min
Overall bit rate mode                    : Variable
Overall bit rate                         : 28.2 Mb/s

Video
ID                                       : 1535 (0x5FF)
Menu ID                                  : 553 (0x229)
Format                                   : HEVC
Format/Info                              : High Efficiency Video Coding
Format profile                           : Main 10@L5.1@Main
Codec ID                                 : 36
Duration                                 : 1 h 51 min
Bit rate                                 : 26.5 Mb/s
Width                                    : 3 840 pixels
Height                                   : 2 160 pixels
Display aspect ratio                     : 16:9
Frame rate                               : 50.000 FPS
Standard                                 : Component
Color space                              : YUV
Chroma subsampling                       : 4:2:0 (Type 2)
Bit depth                                : 10 bits
Bits/(Pixel*Frame)                       : 0.064
Stream size                              : 20.6 GiB (94%)
Color range                              : Limited
Color primaries                          : BT.2020
Transfer characteristics                 : HLG / BT.2020 (10-bit)
Matrix coefficients                      : BT.2020 non-constant

Audio #1
ID                                       : 1539 (0x603)
Menu ID                                  : 553 (0x229)
Format                                   : E-AC-3
Format/Info                              : Enhanced AC-3
Commercial name                          : Dolby Digital Plus
Codec ID                                 : 6
Duration                                 : 1 h 51 min
Bit rate mode                            : Constant
Bit rate                                 : 192 kb/s
Channel(s)                               : 6 channels
Channel layout                           : L R C LFE Ls Rs
Sampling rate                            : 48.0 kHz
Frame rate                               : 31.250 FPS (1536 SPF)
Compression mode                         : Lossy
Delay relative to video                  : 87 ms
Stream size                              : 153 MiB (1%)
Language                                 : std
Language, more info                      : Clean effects
Service kind                             : Complete Main

Audio #2
ID                                       : 1540 (0x604)
Menu ID                                  : 553 (0x229)
Format                                   : E-AC-3
Format/Info                              : Enhanced AC-3
Commercial name                          : Dolby Digital Plus
Codec ID                                 : 6
Duration                                 : 1 h 51 min
Bit rate mode                            : Constant
Bit rate                                 : 96.0 kb/s
Channel(s)                               : 2 channels
Channel layout                           : L R
Sampling rate                            : 48.0 kHz
Frame rate                               : 31.250 FPS (1536 SPF)
Compression mode                         : Lossy
Delay relative to video                  : 247 ms
Stream size                              : 76.4 MiB (0%)
Language                                 : std
Language, more info                      : Clean effects
Service kind                             : Complete Main

Category Formula1
Rating N/A
Size 21.90 GB
Show/Hide Files
1 file