Torrent’s details
Name FIS.WC.Freestyle.SkiCross.Veysonnaz.SUI.2021-03-21.WEB-DL.X264.CBC.Highlights-X
Image
Description Canadian-centric, extended highlights of the World Cup.

Note: Road to the Olympic Games extended highlights program often contains brief updates/spoilers from other ongoing events.

My apologies for the delay in uploading this. I simply missed it confused.gif but here it is! smile2.gif

Complete name                            : FIS.WC.Freestyle.SkiCross.Veysonnaz.SUI.2021-03-21.WEB-DL.X264.CBC.Highlights-X.mp4
Format                                   : MPEG-4
Format profile                           : Base Media / Version 2
Codec ID                                 : mp42 (mp42/iso2/isom/avc1)
File size                                : 884 MiB
Duration                                 : 47 min 9 s
Overall bit rate mode                    : Variable
Overall bit rate                         : 2 621 kb/s
Encoded date                             : UTC 2021-03-21 17:39:59
Tagged date                              : UTC 2021-03-21 17:39:59

Video
ID                                       : 1
Format                                   : AVC
Format/Info                              : Advanced Video Codec
Format profile                           : Main@L4
Format settings                          : CABAC / 1 Ref Frames
Format settings, CABAC                   : Yes
Format settings, Reference frames        : 1 frame
Format settings, GOP                     : M=1, N=60
Codec ID                                 : avc1
Codec ID/Info                            : Advanced Video Coding
Duration                                 : 47 min 9 s
Bit rate mode                            : Variable
Bit rate                                 : 2 515 kb/s
Width                                    : 1 280 pixels
Height                                   : 720 pixels
Display aspect ratio                     : 16:9
Frame rate mode                          : Constant
Frame rate                               : 29.970 (30000/1001) FPS
Color space                              : YUV
Chroma subsampling                       : 4:2:0
Bit depth                                : 8 bits
Scan type                                : Progressive
Bits/(Pixel*Frame)                       : 0.091
Stream size                              : 840 MiB (95%)
Encoded date                             : UTC 2021-03-21 17:39:59
Tagged date                              : UTC 2021-03-21 17:39:59
Codec configuration box                  : avcC

Audio
ID                                       : 2
Format                                   : AAC LC
Format/Info                              : Advanced Audio Codec Low Complexity
Codec ID                                 : mp4a-40-2
Duration                                 : 47 min 9 s
Source duration                          : 47 min 10 s
Bit rate mode                            : Constant
Bit rate                                 : 128 kb/s
Channel(s)                               : 2 channels
Channel layout                           : L R
Sampling rate                            : 44.1 kHz
Frame rate                               : 43.066 FPS (1024 SPF)
Compression mode                         : Lossy
Stream size                              : 42.4 MiB (5%)
Source stream size                       : 42.4 MiB (5%)
Encoded date                             : UTC 2021-03-21 17:39:59
Tagged date                              : UTC 2021-03-21 17:39:59

Text #1
ID                                       : 1-CC1
Format                                   : EIA-608
Muxing mode                              : SCTE 128 / DTVCC Transport
Muxing mode, more info                   : Muxed in Video #1
Duration                                 : 47 min 9 s
Bit rate mode                            : Constant
Stream size                              : 0.00 Byte (0%)
CaptionServiceName                       : CC1

Text #2
ID                                       : 1-1
Format                                   : EIA-708
Muxing mode                              : SCTE 128 / DTVCC Transport
Muxing mode, more info                   : Muxed in Video #1
Duration                                 : 47 min 9 s
Bit rate mode                            : Constant
Stream size                              : 0.00 Byte (0%)
Category WinterSport
Rating N/A
Size 884.23 MB
Show/Hide Files
1 file