Torrent’s details
Name Formula 1 2018/06/09 Canada Grand Prix Qualifying 1080p HDTV 50fps ENG | SKY Sports F1 HD
Description COMPLETE SKY Sports F1 Qualifying coverage (approx. 2 hrs 28 min)

Formula.1.2018x07.Canada.Qualifying.SkyF1HD.1080p50 (smcgill1969)

01.Pre-Qualifying.Buildup.1080p50.mp4 -- 2.40 GB -- 55 min 2s
02.Qualifying.Session.1080p50.mp4 -- 3.10 GB -- 1 h 10 min
03.Post-Qualifying.Analysis.1080p50.mp4 -- 1.00 GB -- 22 min 55s


___________________________


General
Complete name : 02.Qualifying.Session.mp4
Format : MPEG-4
Format profile : QuickTime
Codec ID : qt 2005.03 (qt )
File size : 3.10 GiB
Duration : 1 h 10 min
Overall bit rate mode : Variable
Overall bit rate : 6 254 kb/s
Encoded date : UTC 2018-06-09 17:57:45
Tagged date : UTC 2018-06-09 19:09:34
Writing library : Apple QuickTime

Video
ID : 1
Format : AVC
Format/Info : Advanced Video Codec
Format profile : High@L4.2
Format settings, CABAC : Yes
Format settings, ReFrames : 2 frames
Format settings, GOP : M=3, N=24
Codec ID : avc1
Codec ID/Info : Advanced Video Coding
Duration : 1 h 10 min
Bit rate mode : Variable
Bit rate : 5 990 kb/s
Maximum bit rate : 12.4 Mb/s
Width : 1 920 pixels
Height : 1 080 pixels
Original height : 1 088 pixels
Display aspect ratio : 16:9
Original display aspect ratio : 16:9
Frame rate mode : Constant
Frame rate : 50.000 FPS
Color space : YUV
Chroma subsampling : 4:2:0
Bit depth : 8 bits
Scan type : Progressive
Bits/(Pixel*Frame) : 0.058
Stream size : 2.97 GiB (96%)
Language : English
Encoded date : UTC 2018-06-09 17:57:45
Tagged date : UTC 2018-06-09 19:09:34

Audio
ID : 2
Format : AAC
Format/Info : Advanced Audio Codec
Format profile : LC
Codec ID : 40
Duration : 1 h 10 min
Duration_FirstFrame : 4 ms
Bit rate mode : Constant
Bit rate : 256 kb/s
Channel(s) : 2 channels
Channel positions : Front: L R
Sampling rate : 48.0 kHz
Frame rate : 46.875 FPS (1024 spf)
Compression mode : Lossy
Stream size : 129 MiB (4%)
Language : English
Encoded date : UTC 2018-06-09 17:57:45
Tagged date : UTC 2018-06-09 19:09:34


Respect to Mr. McGill! cool2.gif
Category Formula1
Rating N/A
Size 6.51 GB
Show/Hide Files
3 files