Torrent’s details
Name UEFA Champions League 11 04 2018 Real Madrid Juventus Canale5 1080i H264 Italian (+Postgame)
Image
Description General
Format                      : Matroska
Format version              : Version 2
File size                   : 8.00 GiB
Duration                    : 2 h 27 min
Overall bit rate            : 7 772 kb/s
Writing application         : Lavf54.63.104
Writing library             : Lavf54.63.104

Video
ID                          : 1
Format                      : AVC
Format/Info                 : Advanced Video Codec
Format profile              : High@L4
Format settings             : CABAC / 4 Ref Frames
Format settings, CABAC      : Yes
Format settings, ReFrames   : 4 frames
Format settings, GOP        : M=4, N=32
Codec ID                    : V_MPEG4/ISO/AVC
Duration                    : 2 h 27 min
Bit rate                    : 7 426 kb/s
Width                       : 1 920 pixels
Height                      : 1 080 pixels
Display aspect ratio        : 16:9
Frame rate mode             : Constant
Frame rate                  : 25.000 FPS
Standard                    : Component
Color space                 : YUV
Chroma subsampling          : 4:2:0
Bit depth                   : 8 bits
Scan type                   : Interlaced
Scan type, store method     : Separated fields
Scan order                  : Top Field First
Bits/(Pixel*Frame)          : 0.143
Stream size                 : 7.64 GiB (96%)
Default                     : No
Forced                      : No
Color range                 : Limited
Color primaries             : BT.709
Transfer characteristics    : BT.709
Matrix coefficients         : BT.709

Audio
ID                          : 2
Format                      : AC-3
Format/Info                 : Audio Coding 3
Codec ID                    : A_AC3
Duration                    : 2 h 27 min
Bit rate mode               : Constant
Bit rate                    : 192 kb/s
Channel(s)                  : 2 channels
Channel positions           : Front: L R
Sampling rate               : 48.0 kHz
Frame rate                  : 31.250 FPS (1536 SPF)
Bit depth                   : 16 bits
Compression mode            : Lossy
Stream size                 : 202 MiB (2%)
Language                    : Italian
Service kind                : Complete Main
Default                     : Yes
Forced                      : No

Category European Soccer
Rating N/A
Size 8.00 GB
Show/Hide Files
1 file