Torrent’s details
Name MLS Cup EC SF 2022.10.23 CF Montréal vs. New York City FC (USA national broadcast) unedited ENG 720p60 H.264
Description MLS Cup Eastern Conference Semifinal
#2 CF Montréal vs. #3 New York City FC

Stade Saputo, Montreal, QC

This is the unedited broadcast from ESPN, so there are commercials during pregame, halftime, and postgame.

Media info
General
Complete name                            : 2022-10-23 CF Montréal vs. New York City FC unedited.mp4
Format                                   : MPEG-4
Format profile                           : Base Media
Codec ID                                 : isom (isom/iso2/avc1/mp41)
File size                                : 9.09 GiB
Duration                                 : 2 h 24 min
Overall bit rate                         : 8 987 kb/s
Movie name                               : MLS Cup Eastern Conference Semifinal: CF Montréal vs. New York City FC
Recorded date                            : 2022-10-23
Writing application                      : Lavf58.29.100

Video
ID                                       : 1
Format                                   : AVC
Format/Info                              : Advanced Video Codec
Format profile                           : High@L4
Format settings                          : CABAC / 2 Ref Frames
Format settings, CABAC                   : Yes
Format settings, Reference frames        : 2 frames
Format settings, GOP                     : M=2, N=14
Codec ID                                 : avc1
Codec ID/Info                            : Advanced Video Coding
Duration                                 : 2 h 24 min
Bit rate                                 : 8 750 kb/s
Width                                    : 1 280 pixels
Height                                   : 720 pixels
Display aspect ratio                     : 16:9
Frame rate mode                          : Constant
Frame rate                               : 59.940 (59940/1000) FPS
Original frame rate                      : 59.940 (60000/1001) FPS
Color space                              : YUV
Chroma subsampling                       : 4:2:0
Bit depth                                : 8 bits
Scan type                                : Progressive
Bits/(Pixel*Frame)                       : 0.158
Stream size                              : 8.85 GiB (97%)
Language                                 : English
Color range                              : Limited
Color primaries                          : BT.709
Transfer characteristics                 : BT.709
Matrix coefficients                      : BT.709
Codec configuration box                  : avcC

Audio
ID                                       : 2
Format                                   : AAC LC
Format/Info                              : Advanced Audio Codec Low Complexity
Codec ID                                 : mp4a-40-2
Duration                                 : 2 h 24 min
Bit rate mode                            : Constant
Bit rate                                 : 221 kb/s
Channel(s)                               : 2 channels
Channel layout                           : L R
Sampling rate                            : 48.0 kHz
Frame rate                               : 46.875 FPS (1024 SPF)
Compression mode                         : Lossy
Stream size                              : 229 MiB (2%)
Language                                 : English
Default                                  : Yes
Alternate group                          : 1

Category International Soccer
Rating N/A
Size 9.09 GB
Show/Hide Files
1 file