Torrent’s details
Name Polish Cup Final 2022 05 02 Lech Poznań vs Raków Częstochowa POLISH 1080p HDTV H265
Image
Description



Code
General
Complete name: Polish Cup Final 2022 05 02 Lech Poznań vs Raków Częstochowa POLISH 1080p HDTV H265.mkv
Format: Matroska
Format version: Version 4
File size: 7.56 GiB
Duration: 2 h 17 min
Overall bit rate: 7 894 kb/s
Encoded date: UTC 2022-05-02 16:33:32
Writing application: mkvmerge v67.0.0 ('Under Stars'wink.gif 64-bit
Writing library: libebml v1.4.2 + libmatroska v1.6.4 / Lavf58.76.100

Video
ID: 1
Format: HEVC
Format/Info: High Efficiency Video Coding
Format profile: Main@L4.1@Main
Codec ID: V_MPEGH/ISO/HEVC
Duration: 2 h 17 min
Bit rate: 7 696 kb/s
Width: 1 920 pixels
Height: 1 080 pixels
Display aspect ratio: 16:9
Frame rate mode: Constant
Frame rate: 50.000 FPS
Color space: YUV
Chroma subsampling: 4:2:0
Bit depth: 8 bits
Bits/(Pixel*Frame): 0.074
Stream size: 7.37 GiB (97%)
Writing library: Lavc58.134.100 hevc_nvenc
Default: Yes
Forced: No
Color range: Limited
Color primaries: BT.709
Transfer characteristics: BT.709
Matrix coefficients: BT.709

Audio
ID: 2
Format: AAC LC
Format/Info: Advanced Audio Codec Low Complexity
Codec ID: A_AAC-2
Duration: 2 h 17 min
Bit rate: 192 kb/s
Channel(s): 2 channels
Channel layout: L R
Sampling rate: 48.0 kHz
Frame rate: 46.875 FPS (1024 SPF)
Compression mode: Lossy
Delay relative to video: -141 ms
Stream size: 190 MiB (2%)
Writing library: Lavc58.134.100 aac
Language: Polish
Default: Yes
Forced: No

Category European Soccer
Rating N/A
Size 7.56 GB
Show/Hide Files
1 file