Torrent’s details
Name NBA.2024.03.22.76ers.vs.Lakers.1080p.60fps.WEB-DL.x264.shock | Lakers Feed |
Image
Description Information

Event:NBA.2024.03.22.76ers.vs.Lakers

Language: English
Ripper: shock a.k.a anjaklama
Video: MPEG4 Video (H264) 1920x1080p 59.94fps 8MB/s
Audio: AAC 48000Hz 128 kb/s stereo



Format  : Matroska
Format version              : Version 4
File size                   : 6.43 GiB
Duration                    : 1 h 55 min
Overall bit rate            : 7 967 kb/s
Frame rate                  : 59.940 FPS
Encoded date                : 2024-03-23 19:05:49 UTC
Writing application         : mkvmerge v79.0 ('Funeral Pyres'wink.gif 64-bit
Writing library             : libebml v1.4.4 + libmatroska v1.7.1

Video
ID                          : 1
Format                      : AVC
Format/Info                 : Advanced Video Codec
Format profile              : High@L4.2
Format settings             : CABAC / 4 Ref Frames
Format settings, CABAC      : Yes
Format settings, Reference  : 4 frames
Codec ID                    : V_MPEG4/ISO/AVC
Duration                    : 1 h 55 min
Bit rate mode               : Constant
Bit rate                    : 7 872 kb/s
Width                       : 1 920 pixels
Height                      : 1 080 pixels
Display aspect ratio        : 16:9
Frame rate mode             : Constant
Frame rate                  : 59.940 (60000/1001) FPS
Color space                 : YUV
Chroma subsampling          : 4:2:0
Bit depth                   : 8 bits
Scan type                   : Progressive
Bits/(Pixel*Frame)          : 0.063
Stream size                 : 6.33 GiB (98%)
Default                     : Yes
Forced                      : No
Color range                 : Limited

Audio
ID                          : 2
Format                      : AAC LC SBR
Format/Info                 : Advanced Audio Codec Low Complexity with Spectral Band Replication
Commercial name             : HE-AAC
Format settings             : Explicit
Codec ID                    : A_AAC-2
Duration                    : 1 h 55 min
Bit rate                    : 128 kb/s
Channel(s)                  : 2 channels
Channel layout              : L R
Sampling rate               : 48.0 kHz
Frame rate                  : 23.438 FPS (2048 SPF)
Compression mode            : Lossy
Stream size                 : 106 MiB (2%)
Language                    : English
Default                     : Yes
Forced                      : No
Category NBA/WNBA
Rating N/A
Size 6.43 GB
Show/Hide Files
1 file