Torrent’s details
Name UEFA.Nations.League.2021-22.Ungaria.vs.Anglia.04.06.2022.1080i.HDTV.MPA2.0.H.264-playTV RO
Description General
Unique ID                                : 183151356634328261176407891049976369141 (0x89C9AB0FCACDAE2171CF4D629AC70FF5)
Complete name                            : UEFA.Nations.League.2021-22.Ungaria.vs.Anglia.04.06.2022.1080i.HDTV.MPA2.0.H.264-playTV.mkv
Format                                   : Matroska
Format version                           : Version 4
File size                                : 8.70 GiB
Duration                                 : 1 h 46 min
Overall bit rate                         : 11.7 Mb/s
Encoded date                             : UTC 2022-06-04 18:43:24
Writing application                      : mkvmerge v55.0.0 ('Waiting For Space'wink.gif 64-bit
Writing library                          : libebml v1.4.2 + libmatroska v1.6.4

Video
ID                                       : 1
Format                                   : AVC
Format/Info                              : Advanced Video Codec
Format profile                           : High@L4.1
Format settings                          : CABAC / 4 Ref Frames
Format settings, CABAC                   : Yes
Format settings, Reference frames        : 4 frames
Format settings, GOP                     : M=4, N=24
Codec ID                                 : V_MPEG4/ISO/AVC
Duration                                 : 1 h 46 min
Bit rate                                 : 11.4 Mb/s
Width                                    : 1 920 pixels
Height                                   : 1 080 pixels
Display aspect ratio                     : 16:9
Frame rate mode                          : Variable
Frame rate                               : 50.000 FPS
Original frame rate                      : 25.000 FPS
Color space                              : YUV
Chroma subsampling                       : 4:2:0
Bit depth                                : 8 bits
Scan type                                : Interlaced
Scan type, store method                  : Separated fields
Scan order                               : Top Field First
Bits/(Pixel*Frame)                       : 0.110
Stream size                              : 8.50 GiB (98%)
Default                                  : Yes
Forced                                   : No
Color range                              : Limited
Color primaries                          : BT.709
Transfer characteristics                 : BT.709
Matrix coefficients                      : BT.709

Audio
ID                                       : 2
Format                                   : MPEG Audio
Format version                           : Version 1
Format profile                           : Layer 2
Codec ID                                 : A_MPEG/L2
Codec ID/Hint                            : MP2
Duration                                 : 1 h 46 min
Bit rate mode                            : Constant
Bit rate                                 : 256 kb/s
Channel(s)                               : 2 channels
Sampling rate                            : 48.0 kHz
Frame rate                               : 41.667 FPS (1152 SPF)
Compression mode                         : Lossy
Stream size                              : 195 MiB (2%)
Language                                 : Romanian
Default                                  : Yes
Forced                                   : No
Category European Soccer
Rating N/A
Size 8.70 GB
Show/Hide Files
1 file