Torrent’s details
Name EPL 2018-04-15 Manchester Utd vs West Bromwich 720p HDTV DD5.1 50fps x264-wAm.mkv
Description General
Unique ID                   : 198516675558077928647364019987796687610 (0x9558EBC61D898EDDA143EEFCFE7F7AFA)
Complete name               : E:500GBDownloadsEPL 2018-04-15 Manchester Utd vs West Bromwich 720p HDTV DD5.1 50fps x264-wAm.mkv
Format                      : Matroska
Format version              : Version 4 / Version 2
File size                   : 3.37 GiB
Duration                    : 1 h 48 min
Overall bit rate            : 4 436 kb/s
Writing application         : Lavf57.71.100
Writing library             : Lavf57.71.100
ErrorDetectionType          : Per level 1

Video
ID                          : 1
Format                      : AVC
Format/Info                 : Advanced Video Codec
Format profile              : High@L4.1
Format settings             : CABAC / 6 Ref Frames
Format settings, CABAC      : Yes
Format settings, ReFrames   : 6 frames
Codec ID                    : V_MPEG4/ISO/AVC
Duration                    : 1 h 48 min
Bit rate                    : 3 963 kb/s
Width                       : 1 280 pixels
Height                      : 720 pixels
Display aspect ratio        : 16:9
Frame rate mode             : Constant
Frame rate                  : 50.000 FPS
Color space                 : YUV
Chroma subsampling          : 4:2:0
Bit depth                   : 8 bits
Scan type                   : Progressive
Bits/(Pixel*Frame)          : 0.086
Stream size                 : 3.01 GiB (89%)
Default                     : Yes
Forced                      : No

Audio
ID                          : 2
Format                      : AC-3
Format/Info                 : Audio Coding 3
Codec ID                    : A_AC3
Duration                    : 1 h 48 min
Bit rate mode               : Constant
Bit rate                    : 384 kb/s
Channel(s)                  : 6 channels
Channel positions           : Front: L C R, Side: L R, LFE
Sampling rate               : 48.0 kHz
Frame rate                  : 31.250 FPS (1536 SPF)
Bit depth                   : 16 bits
Compression mode            : Lossy
Delay relative to video     : 150 ms
Stream size                 : 299 MiB (9%)
Service kind                : Complete Main
Default                     : Yes
Forced                      : No

Category EPL
Rating N/A
Size 3.37 GB
Show/Hide Files
1 file