Torrent’s details
Name Formula 1 2022 Monaco Grand Prix Race Package | Round 07 | 1080EN50fps | SKY F1
Image
Description
Format                                   : MPEG-4
Format profile                           : Base Media
Codec ID                                 : isom (isom/iso2/avc1/mp41)
File size                                : 12.1 GiB
Duration                                 : 3 h 29 min
Overall bit rate mode                    : Variable
Overall bit rate                         : 8 275 kb/s
Writing application                      : Lavf58.76.100

Video
ID                                       : 1
Format                                   : AVC
Format/Info                              : Advanced Video Codec
Format profile                           : High@L4.2
Format settings                          : CABAC / 2 Ref Frames
Format settings, CABAC                   : Yes
Format settings, Reference frames        : 2 frames
Format settings, GOP                     : M=3, N=24
Codec ID                                 : avc1
Codec ID/Info                            : Advanced Video Coding
Duration                                 : 3 h 29 min
Bit rate mode                            : Variable
Bit rate                                 : 8 004 kb/s
Maximum bit rate                         : 16.2 Mb/s
Width                                    : 1 920 pixels
Height                                   : 1 080 pixels
Original height                          : 1 088 pixels
Display aspect ratio                     : 16:9
Original display aspect ratio            : 16:9
Frame rate mode                          : Variable
Frame rate                               : 50.000 FPS
Minimum frame rate                       : 25.000 FPS
Maximum frame rate                       : 50.100 FPS
Color space                              : YUV
Chroma subsampling                       : 4:2:0
Bit depth                                : 8 bits
Scan type                                : Progressive
Bits/(Pixel*Frame)                       : 0.077
Stream size                              : 11.7 GiB (97%)
Language                                 : English
Codec configuration box                  : avcC

Audio
ID                                       : 2
Format                                   : AAC LC
Format/Info                              : Advanced Audio Codec Low Complexity
Codec ID                                 : mp4a-40-2
Duration                                 : 3 h 29 min
Bit rate mode                            : Constant
Bit rate                                 : 257 kb/s
Channel(s)                               : 2 channels
Channel layout                           : L R
Sampling rate                            : 48.0 kHz
Frame rate                               : 46.875 FPS (1024 SPF)
Compression mode                         : Lossy
Stream size                              : 386 MiB (3%)
Language                                 : English
Default                                  : Yes
Alternate group                          : 1

Category Formula1
Rating N/A
Size 19.51 GB
Show/Hide Files
3 files