Torrent’s details
Name Formula1.2022.Belgian.Grand.Prix.2160p.UHDTV.AAC2.0.H.265-playTV SKY EN | RO
Description General
Unique ID                                : 322522120664334362684170877562992426914 (0xF2A38040FA219A6A38C42C60D5AF7FA2)
Complete name                            : Formula1.2022.Belgian.Grand.Prix.2160p.UHDTV.AAC2.0.H.265-playTV.mkv
Format                                   : Matroska
Format version                           : Version 4
File size                                : 21.0 GiB
Duration                                 : 2 h 0 min
Overall bit rate                         : 25.0 Mb/s
Encoded date                             : UTC 2022-08-29 09:41:04
Writing application                      : mkvmerge v53.0.0 ('Fool's Gold'wink.gif 64-bit
Writing library                          : libebml v1.4.1 + libmatroska v1.6.2

Video
ID                                       : 1
Format                                   : HEVC
Format/Info                              : High Efficiency Video Coding
Format profile                           : Main 10@L5.1@High
Codec ID                                 : V_MPEGH/ISO/HEVC
Duration                                 : 2 h 0 min
Bit rate                                 : 24.8 Mb/s
Width                                    : 3 840 pixels
Height                                   : 2 160 pixels
Display aspect ratio                     : 16:9
Frame rate mode                          : Constant
Frame rate                               : 50.000 FPS
Standard                                 : Component
Color space                              : YUV
Chroma subsampling                       : 4:2:0 (Type 0)
Bit depth                                : 10 bits
Bits/(Pixel*Frame)                       : 0.060
Stream size                              : 20.8 GiB (99%)
Default                                  : Yes
Forced                                   : No
Color range                              : Limited
Color primaries                          : BT.709
Transfer characteristics                 : BT.709
Matrix coefficients                      : BT.709

Audio #1
ID                                       : 2
Format                                   : AAC LC
Format/Info                              : Advanced Audio Codec Low Complexity
Codec ID                                 : A_AAC-2
Duration                                 : 1 h 51 min
Bit rate                                 : 125 kb/s
Channel(s)                               : 2 channels
Channel layout                           : L R
Sampling rate                            : 48.0 kHz
Frame rate                               : 46.875 FPS (1024 SPF)
Compression mode                         : Lossy
Delay relative to video                  : 110 ms
Stream size                              : 100 MiB (0%)
Title                                    : F1 TV / SKY Sports F1 - Audio Track
Language                                 : English
Default                                  : Yes
Forced                                   : No

Audio #2
ID                                       : 3
Format                                   : AAC LC
Format/Info                              : Advanced Audio Codec Low Complexity
Codec ID                                 : A_AAC-2
Duration                                 : 2 h 0 min
Bit rate                                 : 125 kb/s
Channel(s)                               : 2 channels
Channel layout                           : L R
Sampling rate                            : 48.0 kHz
Frame rate                               : 46.875 FPS (1024 SPF)
Compression mode                         : Lossy
Delay relative to video                  : -40 ms
Stream size                              : 108 MiB (1%)
Title                                    : Digi 4K - Audio Track
Language                                 : Romanian
Default                                  : No
Forced                                   : No



Formula1.2022.Belgian.Grand.Prix.2160p.UHDTV.AAC2.0.H.265-playTV

* RELEASE iNFO *

RELEASE NAME.........: Formula1.2022.Belgian.Grand.Prix.2160p.UHDTV.AAC2.0.H.265-playTV
GENRE................: Racing
RUNTIME..............: 2 h 0 min
VIDEO CODEC..........: HEVC
FRAMERATE ...........: 50.000 fps
AVG BITRATE .........: 24.8 Mb/s
RELEASE SIZE.........: 21.0 GiB
RESOLUTION ..........: 3840x2160 / 10-bit
ASPECT RATIO ........: 16:9
AUDIO #1.............: English @ Advanced Audio Codec LC Audio - 2 channels / 125 Kbps
AUDIO #2.............: Romanian @ Advanced Audio Codec LC Audio - 2 channels / 125 Kbps
VIDEO SOURCE ........: DIGI 4K
.
.
ENG AUDIO SOURCE ....: Formula1.2022.Belgian.Grand.Prix.Race.1080p.WEB-DL.AAC2.0.H.264-MWR  - Thanks! -

* SCREENSHOTS *
  -----------  



* NOTES *
  -----------  

This contains ENGLISH AUDIO from F1 TV / SKY Sports F1.
Category Formula1
Rating N/A
Size 21.00 GB
Show/Hide Files
1 file